BitTorrentTracker PerecTracker.org
BitTorrentTracker PerecTracker.org
    
Регистрация  ·  Вход
 
 · 
Забыли пароль?

  • Не угаснет надежда / Все пропало / All is lost (Джей Си Чендор / J.C. Chandor) [2013, США, приключения, драма, HDTVRip] [Open Matte] Dub

    Ответить на тему
     
    Автор Сообщение

    Light

    Создавать темы 14-Авг-2016 23:38

           

    [Цитировать]

    Не угаснет надежда / Все пропало / All is lost / Open Matte
    Страна: США
    Жанр: приключения, драма
    Год выпуска: 2013
    Продолжительность: 01:34:35
    Перевод: Профессиональный (дублированный)
    Cубтитры: нет
    Оригинальная аудиодорожка: нет
    Режиссер: Джей Си Чендор / J.C. Chandor
    В ролях: Роберт Редфорд.
    Описание: Высокий загорелый мужчина путешествует на роскошной яхте в теплых водах Индийского океана, но идиллическая картина меняется в одночасье, и герой оказывается один на один с бездной. Ради тех, кто остался на берегу, он вступит в схватку со свирепой стихией.
    Доп. информация: Рип с канала Первый HD. Из видеоряда удален логотип канала, остались послерекламные вставки с названием фильма. Звук 5.1 - иногда Первый балует этим. Наполнение кадра HDTV больше чем на BD и DVD http://screenshotcomparison.com/comparison/181251.
    Сэмпл: http://multi-up.com/1113792
    Качество видео: HDTVRip
    Формат видео: AVI
    Видео: MPEG4, XviD, 720x400 (16:9), 25.000 fps, 1 804 Kbps (0.251 bit/pixel)
    Аудио: AC-3, 48.0 KHz, 6 ch, 384 Kbps, CBR

    MediaInfo

    Общее
    Полное имя : M:\Не угаснет надежда.avi
    Формат : AVI
    Формат/Информация : Audio Video Interleave
    Размер файла : 1,45 Гбайт
    Продолжительность : 1 ч. 34 м.
    Общий поток : 2198 Кбит/сек
    Название фильма : Не угаснет надежда / Все пропало / All is lost (2015)
    Программа кодирования : VirtualDubMod 1.5.10.2 (build 2540/release)
    Библиотека кодирования : VirtualDubMod build 2540/release
    Авторское право : miha2154
    Видео
    Идентификатор : 0
    Формат : MPEG-4 Visual
    Профиль формата : Advanced Simple@L5
    Параметр BVOP формата : 1
    Параметр QPel формата : Нет
    Параметр GMC формата : Без точки перехода
    Параметр матрицы формата : Выборочная
    Идентификатор кодека : XVID
    Идентификатор кодека/Подсказка : XviD
    Продолжительность : 1 ч. 34 м.
    Битрейт : 1804 Кбит/сек
    Ширина : 720 пикселей
    Высота : 400 пикселей
    Соотношение сторон : 16:9
    Частота кадров : 25,000 кадров/сек
    Цветовое пространство : YUV
    Субдискретизация насыщенности : 4:2:0
    Битовая глубина : 8 бит
    Тип развёртки : Прогрессивная
    Метод сжатия : С потерями
    Бит/(Пиксели*Кадры) : 0.251
    Размер потока : 1,19 Гбайт (82%)
    Библиотека кодирования : XviD 65
    Аудио
    Идентификатор : 1
    Формат : AC-3
    Формат/Информация : Audio Coding 3
    Расширение режима : CM (complete main)
    Параметр Endianness формата : Big
    Идентификатор кодека : 2000
    Продолжительность : 1 ч. 34 м.
    Вид битрейта : Постоянный
    Битрейт : 384 Кбит/сек
    Каналы : 6 каналов
    Расположение каналов : Front: L C R, Side: L R, LFE
    Частота : 48,0 КГц
    Частота кадров : 31,250 кадров/сек (1536 spf)
    Метод сжатия : С потерями
    Размер потока : 260 Мбайт (17%)
    Выравнивание : Разделение по промежуткам
    Продолжительность промежутка : 40 мс. (1,00 видеокадр)
    Время предзагрузки промежутка : 500 мс.
    Заголовок : Профессиональный (полное дублирование)

    Скриншоты


    Скачать .torrent

    Скачать торрент-файл бесплатно и на максимальной скорости!

    Как скачивать? · Что такое торрент? · Рейтинг и ограничения

    !ВНИМАНИЕ!
    Сайт не распространяет и не хранит электронные версии произведений, а занимается лишь лишь предоставлением доступа к создаваемому пользователями каталогу ссылок на торрент-файлы, которые содержат только списки хеш-сумм, убедительная просьба с жалобами обращаться напрямую к пользователю. Файлы для обмена на трекере предоставлены пользователями сайта, и администрация не несёт ответственности за их содержание. Просьба не заливать файлы, защищенные авторскими правами, а также файлы нелегального содержания!


    _________________
    [Профиль] [ЛС]
    Показать сообщения:    
    Ответить на тему

    Текущее время: Сегодня, в 11:40

    Часовой пояс: GMT + 2



    Вы не можете начинать темы
    Вы не можете отвечать на сообщения
    Вы не можете редактировать свои сообщения
    Вы не можете удалять свои сообщения
    Вы не можете голосовать в опросах
    Вы не можете прикреплять файлы к сообщениям
    Вы не можете скачивать файлы