BitTorrentTracker PerecTracker.org
BitTorrentTracker PerecTracker.org
    
Регистрация  ·  Вход
 
 · 
Забыли пароль?

  • Тропа гиены / Hyena Road (Пол Гросс / Paul Gross) [2015, Канада, Драма, военный, HDRip] VO ХихиДок

    Ответить на тему
     
    Автор Сообщение

    Light

    Создавать темы 14-Авг-2016 23:38

           

    [Цитировать]

    Тропа гиены / Hyena Road
    Страна: Канада
    Жанр: Драма, военный
    Год выпуска: 2015
    Продолжительность: 02:00:00
    Перевод: Одноголосый закадровый ХихиДок (автор перевода Nataly-810)
    Cубтитры: нет
    Режиссер: Пол Гросс / Paul Gross
    В ролях: Россиф Сазерленд, Пол Гросс, Кларк Джонсон, Аллан Хоуко, Дэвид Ричмонд-Пек, Дженнифер Пудавик.
    Описание: Сюжет картины рассказывает о трёх бывалых вояках, каждый из которых имел возможность начать новую жизнь на гражданке. Однако главные герои приняли решение подписать контракт с армией ещё на несколько лет. Теперь мужчинами распоряжается министерство обороны, которое засылает их в самые горячие точки. Сюжет картины будет закручиваться вокруг муджахида, который принялся за старое. Долгое время о нём не было ничего слышно, однако сейчас он вновь вышел на тропу войны. Офицер разведки и снайпер получают задание найти и нейтрализовать эту цель. Смогут ли они выполнить задание, находясь во враждебных условиях кровопролитной войны?
    Примечание : -- Присутствует (частично) ненормативная лексика ...
    Сэмпл: http://multi-up.com/1113795
    Качество видео: HDRip (Исходник Hyena Road (2015) BDRip [H.264/720p])
    Формат видео: AVI
    Видео: XviD, 720x400, (16:9), 23,976 fps, 1522 Кбит/с, 8 бит
    Аудио: Русский (AC3, 2 ch (Front: L, R), 48,0 KHz, 192 Kbps)

    MediaInfo

    Общее
    Полное имя : F:\Видеофильмы\В и д е о\Тропа гиены (драма военный 2015г).avi
    Формат : AVI
    Формат/Информация : Audio Video Interleave
    Размер файла : 1,44 Гбайт
    Продолжительность : 2 ч. 0 м.
    Общий поток : 1723 Кбит/сек
    Программа кодирования : VirtualDubMod 1.5.10.2 (build 2540/release)
    Библиотека кодирования : VirtualDubMod build 2540/release
    Видео
    Идентификатор : 0
    Формат : MPEG-4 Visual
    Профиль формата : Advanced Simple@L5
    Параметр BVOP формата : 2
    Параметр QPel формата : Нет
    Параметр GMC формата : Без точки перехода
    Параметр матрицы формата : Выборочная
    Идентификатор кодека : XVID
    Идентификатор кодека/Подсказка : XviD
    Продолжительность : 2 ч. 0 м.
    Битрейт : 1522 Кбит/сек
    Ширина : 720 пикселей
    Высота : 400 пикселей
    Соотношение сторон : 16:9
    Частота кадров : 23,976 (23976/1000) кадра/сек
    Цветовое пространство : YUV
    Субдискретизация насыщенности : 4:2:0
    Битовая глубина : 8 бит
    Тип развёртки : Прогрессивная
    Метод сжатия : С потерями
    Бит/(Пиксели*Кадры) : 0.220
    Размер потока : 1,28 Гбайт (88%)
    Библиотека кодирования : XviD 1.2.0.dev47 (UTC 2006-11-01)
    Аудио
    Идентификатор : 1
    Формат : AC-3
    Формат/Информация : Audio Coding 3
    Расширение режима : CM (complete main)
    Параметр Endianness формата : Big
    Идентификатор кодека : 2000
    Продолжительность : 2 ч. 0 м.
    Вид битрейта : Постоянный
    Битрейт : 192 Кбит/сек
    Каналы : 2 канала
    Расположение каналов : Front: L R
    Частота : 48,0 КГц
    Частота кадров : 31,250 кадров/сек (1536 spf)
    Метод сжатия : С потерями
    Размер потока : 165 Мбайт (11%)
    Выравнивание : Разделение по промежуткам
    Продолжительность промежутка : 42 мс. (1,00 видеокадр)
    Время предзагрузки промежутка : 500 мс.

    Скриншот c названием фильма

    Скриншоты

    Скачать .torrent

    Скачать торрент-файл бесплатно и на максимальной скорости!

    Как скачивать? · Что такое торрент? · Рейтинг и ограничения

    !ВНИМАНИЕ!
    Сайт не распространяет и не хранит электронные версии произведений, а занимается лишь лишь предоставлением доступа к создаваемому пользователями каталогу ссылок на торрент-файлы, которые содержат только списки хеш-сумм, убедительная просьба с жалобами обращаться напрямую к пользователю. Файлы для обмена на трекере предоставлены пользователями сайта, и администрация не несёт ответственности за их содержание. Просьба не заливать файлы, защищенные авторскими правами, а также файлы нелегального содержания!


    _________________
    [Профиль] [ЛС]
    Показать сообщения:    
    Ответить на тему

    Текущее время: Сегодня, в 18:09

    Часовой пояс: GMT + 2



    Вы не можете начинать темы
    Вы не можете отвечать на сообщения
    Вы не можете редактировать свои сообщения
    Вы не можете удалять свои сообщения
    Вы не можете голосовать в опросах
    Вы не можете прикреплять файлы к сообщениям
    Вы не можете скачивать файлы