Register  ·  Log in
Forgot password?

  • Фара (Абай Карпыков) [1999, драма, DVB, AVC]

    Reply to topic
    Author Message


    Post 14-Aug-2016 16:24



    Жанр: драма
    Год выпуска: 1999
    Продолжительность: 01:13:38
    Режиссёр: Абай Карпыков
    В ролях: Фархат Абдраимов, Кристина Орбакайте, Даурен Саркисеев, Александр Александров, Бопеш Жандаев, Саги Ашимов, Камилла Нуркеева, Сергей Дулесов, Юрий Капустин, Ирина Коваль, Жангельды Молдахметов, Алексей Давыдов, Игорь Сейфуллин, Умирзак Шманов, Оксана Бойченко, Олег Бирючев, Маусым Умиров, Индира Джакулбекова, Дияр Жазыкбаев, Елена Гудова
    Описание: Фара - это не часть машины, а прозвище главного героя. В крупном банке на секретном счете лежат миллионы. Код счета знает единственный человек в городе, Фара - сын убитого директора банка, добродушный толстяк, владелец и шеф-повар кафе «Ласточка».
    Доп. информация: Запись потока *.ts со спутника EUTELSAT 36A/B, 36° в.д., ремукс в *.MKV
    Качество видео: DVB
    Формат видео: MKV
    Видео: Advanced Video Codec, 720(768)x576 (4:3), 25,000 кадров/сек, 2 891 Кбит/сек
    Аудио: MPEG Audio, 48,0 КГц, 192 Кбит/сек, 2 канала


    Unique ID : 108454318007304856400016051764877009753 (0x51978AB7A7674A78BE0880A5BAC32359)
    Complete name : X:\server\НАШЕ\ФАРА (НАШЕ КИНО НТВ-ПЛЮС).mkv
    Format : Matroska
    Format version : Version 2
    File size : 1.62 GiB
    Duration : 1h 13mn
    Overall bit rate : 3 146 Kbps
    Writing application : Lavf52.64.2
    Writing library : Lavf52.64.2
    ID : 1
    Format : AVC
    Format/Info : Advanced Video Codec
    Format profile : High@L3.0
    Format settings, CABAC : Yes
    Format settings, ReFrames : 4 frames
    Codec ID : V_MPEG4/ISO/AVC
    Duration : 1h 13mn
    Bit rate : 2 891 Kbps
    Width : 720 pixels
    Height : 576 pixels
    Display aspect ratio : 4:3
    Original display aspect ratio : 4:3
    Frame rate : 25.000 fps
    Standard : PAL
    Color space : YUV
    Chroma subsampling : 4:2:0
    Bit depth : 8 bits
    Scan type : Interlaced
    Scan order : Top Field First
    Bits/(Pixel*Frame) : 0.279
    Stream size : 1.49 GiB (92%)
    Default : Yes
    Forced : No
    Color primaries : BT.470-6 System B, BT.470-6 System G, BT.601-6 625, BT.1358 625, BT.1700 625 PAL, BT.1700 625 SECAM
    Transfer characteristics : BT.470-6 System B, BT.470-6 System G
    Matrix coefficients : BT.470-6 System B, BT.470-6 System G, BT.601-6 625, BT.1358 625, BT.1700 625 PAL, BT.1700 625 SECAM, IEC 61966-2-4 601
    ID : 2
    Format : MPEG Audio
    Format version : Version 1
    Format profile : Layer 2
    Codec ID : A_MPEG/L2
    Codec ID/Hint : MP2
    Duration : 1h 13mn
    Bit rate mode : Constant
    Bit rate : 192 Kbps
    Channel(s) : 2 channels
    Sampling rate : 48.0 KHz
    Compression mode : Lossy
    Stream size : 101 MiB (6%)
    Language : Russian
    Default : Yes
    Forced : No

    Скриншот c названием фильма


    Download .torrent

    Download free and at maximum speed!

    How to Download? · What is a torrent? · Ratings and Limitations

    The site does not extend and does not store electronic(digital) versions of products, and only gives access to a reference catalogue created by users on torrent-files which contain only lists of the hash-sums, the earnest entreaty, with complaints(abuse) to access directly to the user. Files for an exchange on tracker are given by users of a site, and the administration does not bear the responsibility for their maintenance. The request to not fill in the files protected by copyrights, and also files of the illegal maintenance!

    [Profile] [PM]
    Display posts from previous:    
    Reply to topic

    The time now is: Today 16:15

    All times are GMT + 3 Hours

    You cannot post new topics in this forum
    You cannot reply to topics in this forum
    You cannot edit your posts in this forum
    You cannot delete your posts in this forum
    You cannot vote in polls in this forum
    You cannot attach files in this forum
    You cannot download files in this forum