BitTorrentTracker PerecTracker.org
BitTorrentTracker PerecTracker.org
    
Регистрация  ·  Вход
 
 · 
Забыли пароль?

  • Фара (Абай Карпыков) [1999, драма, DVB, AVC]

    Ответить на тему
     
    Автор Сообщение

    Flirldrerve

    Создавать темы 14-Авг-2016 15:24

           

    [Цитировать]

    Фара
    Жанр: драма
    Год выпуска: 1999
    Продолжительность: 01:13:38
    Режиссёр: Абай Карпыков
    В ролях: Фархат Абдраимов, Кристина Орбакайте, Даурен Саркисеев, Александр Александров, Бопеш Жандаев, Саги Ашимов, Камилла Нуркеева, Сергей Дулесов, Юрий Капустин, Ирина Коваль, Жангельды Молдахметов, Алексей Давыдов, Игорь Сейфуллин, Умирзак Шманов, Оксана Бойченко, Олег Бирючев, Маусым Умиров, Индира Джакулбекова, Дияр Жазыкбаев, Елена Гудова
    Описание: Фара - это не часть машины, а прозвище главного героя. В крупном банке на секретном счете лежат миллионы. Код счета знает единственный человек в городе, Фара - сын убитого директора банка, добродушный толстяк, владелец и шеф-повар кафе «Ласточка».
    Доп. информация: Запись потока *.ts со спутника EUTELSAT 36A/B, 36° в.д., ремукс в *.MKV
    Качество видео: DVB
    Формат видео: MKV
    Видео: Advanced Video Codec, 720(768)x576 (4:3), 25,000 кадров/сек, 2 891 Кбит/сек
    Аудио: MPEG Audio, 48,0 КГц, 192 Кбит/сек, 2 канала

    MediaInfo

    General
    Unique ID : 108454318007304856400016051764877009753 (0x51978AB7A7674A78BE0880A5BAC32359)
    Complete name : X:\server\НАШЕ\ФАРА (НАШЕ КИНО НТВ-ПЛЮС).mkv
    Format : Matroska
    Format version : Version 2
    File size : 1.62 GiB
    Duration : 1h 13mn
    Overall bit rate : 3 146 Kbps
    Writing application : Lavf52.64.2
    Writing library : Lavf52.64.2
    Video
    ID : 1
    Format : AVC
    Format/Info : Advanced Video Codec
    Format profile : High@L3.0
    Format settings, CABAC : Yes
    Format settings, ReFrames : 4 frames
    Codec ID : V_MPEG4/ISO/AVC
    Duration : 1h 13mn
    Bit rate : 2 891 Kbps
    Width : 720 pixels
    Height : 576 pixels
    Display aspect ratio : 4:3
    Original display aspect ratio : 4:3
    Frame rate : 25.000 fps
    Standard : PAL
    Color space : YUV
    Chroma subsampling : 4:2:0
    Bit depth : 8 bits
    Scan type : Interlaced
    Scan order : Top Field First
    Bits/(Pixel*Frame) : 0.279
    Stream size : 1.49 GiB (92%)
    Default : Yes
    Forced : No
    Color primaries : BT.470-6 System B, BT.470-6 System G, BT.601-6 625, BT.1358 625, BT.1700 625 PAL, BT.1700 625 SECAM
    Transfer characteristics : BT.470-6 System B, BT.470-6 System G
    Matrix coefficients : BT.470-6 System B, BT.470-6 System G, BT.601-6 625, BT.1358 625, BT.1700 625 PAL, BT.1700 625 SECAM, IEC 61966-2-4 601
    Audio
    ID : 2
    Format : MPEG Audio
    Format version : Version 1
    Format profile : Layer 2
    Codec ID : A_MPEG/L2
    Codec ID/Hint : MP2
    Duration : 1h 13mn
    Bit rate mode : Constant
    Bit rate : 192 Kbps
    Channel(s) : 2 channels
    Sampling rate : 48.0 KHz
    Compression mode : Lossy
    Stream size : 101 MiB (6%)
    Language : Russian
    Default : Yes
    Forced : No

    Скриншот c названием фильма

    Скриншоты

    Скачать .torrent

    Скачать торрент-файл бесплатно и на максимальной скорости!

    Как скачивать? · Что такое торрент? · Рейтинг и ограничения

    !ВНИМАНИЕ!
    Сайт не распространяет и не хранит электронные версии произведений, а занимается лишь лишь предоставлением доступа к создаваемому пользователями каталогу ссылок на торрент-файлы, которые содержат только списки хеш-сумм, убедительная просьба с жалобами обращаться напрямую к пользователю. Файлы для обмена на трекере предоставлены пользователями сайта, и администрация не несёт ответственности за их содержание. Просьба не заливать файлы, защищенные авторскими правами, а также файлы нелегального содержания!


    _________________
    [Профиль] [ЛС]
    Показать сообщения:    
    Ответить на тему

    Текущее время: Сегодня, в 01:08

    Часовой пояс: GMT + 2



    Вы не можете начинать темы
    Вы не можете отвечать на сообщения
    Вы не можете редактировать свои сообщения
    Вы не можете удалять свои сообщения
    Вы не можете голосовать в опросах
    Вы не можете прикреплять файлы к сообщениям
    Вы не можете скачивать файлы