BitTorrentTracker PerecTracker.org
BitTorrentTracker PerecTracker.org
    
Регистрация  ·  Вход
 
 · 
Забыли пароль?

  • [ATV3] Славные парни / The Nice Guys (Шейн Блэк / Shane Black ) [2016, США, Великобритания , криминал, комедия, BDRip, HD (1080p)] DUB + Original + sub (eng)

    Ответить на тему
     
    Автор Сообщение

    rechyn

    Создавать темы 14-Авг-2016 15:24

           

    [Цитировать]

    Славные парни / The Nice Guys
    «Симпатичная пара»
    7.289 / 10 7.60 / 10
    -Год выпуска: 2016
    Страна: США, Великобритания
    Жанр: криминал, комедия
    Продолжительность: 1:55:57
    Перевод: Дублированный (iTunes)
    Оригинальная аудиодорожка: Есть
    Cубтитры: Английские
    Режиссёр: Шейн Блэк
    Сценарий: Шейн Блэк, Энтони Багароцци
    Продюсер: Джоэл Силвер, Аарон Ауч, Энтони Багароцци
    Оператор: Филипп Русло
    Композитор: Дэвид Бакли, Джон Оттмен
    Художник: Ричард Бриджлэнд, Дэвид Атли, Ким Барретт
    Монтаж: Джоэль Негрон
    В ролях: Райан Гослинг, Ким Бейсингер, Рассел Кроу, Энгаури Райс, Мэтт Бомер, Маргарет Куэлли, Йайа ДаКоста, Кит Дэвид, Бо Напп, Лоис Смит
    Бюджет: $50 000 000
    Сборы в США: $36 261 763
    Сборы в России: $2 462 171
    Мировая премьера: 15 мая 2016
    Премьера (РФ): 16 июня 2016, «Парадиз»
    Описание: Что бывает, когда напарником брутального костолома становится субтильный лопух? Наемный охранник Джексон Хили и частный детектив Холланд Марч вынуждены работать в паре, чтобы распутать плевое дело о пропавшей девушке, которое оборачивается преступлением века.-Качество исходника: Blu-Ray (BlueBird)
    Качество: BDRip
    Тип: HD (1080p)
    Контейнер: M4V
    Видео: H.264, 1920x800, 2.40:1, 8 000 kb/s, 23.976 (24000/1001) FPS
    Аудио 1: Русский/Дублированный (iTunes), AAC / 2.0 / 158 kb/s / 48.0 kHz
    Аудио 2: Английский/Оригинальная дорожка , AAC / 2.0 / 157 kb/s / 48.0 kHz
    Аудио 3: Русский/Дублированный (iTunes), AC-3 / 5.1 / 384 kb/s / 48.0 kHz
    Аудио 4: Английский/Оригинальная дорожка , AC-3 / 5.1 / 640 kb/s / 48.0 kHz
    Субтитры: Английские полные
    -

    iTunes Meta Tags

    Sort Name: Nice Guys
    XID: Apple:vendor_id:2016-841152
    contentID: 1114158810
    Copyright: © 2016 Warner Bros. Entertainment Inc.
    Screenwriters: Шейн Блэк, Энтони Багароцци
    Producers: Джоэл Силвер, Аарон Ауч, Энтони Багароцци
    Director: Шейн Блэк
    Cast: Райан Гослинг, Ким Бейсингер, Рассел Кроу, Энгаури Райс, Мэтт Бомер, Маргарет Куэлли, Йайа ДаКоста, Кит Дэвид, Бо Напп, Лоис Смит
    Studio: Warner Bros.
    Rating Annotation: Rated R for violence, sexuality, nudity, language and brief drug use.
    Rating: 5
    Long Description: Что бывает, когда напарником брутального костолома становится субтильный лопух? Наемный охранник Джексон Хили и частный детектив Холланд Марч вынуждены работать в паре, чтобы распутать плевое дело о пропавшей девушке, которое оборачивается преступлением века.
    Смогут ли парни разгадать сложный ребус, если у каждого из них - свои, весьма индивидуальные методы...
    Description: Что бывает, когда напарником брутального костолома становится субтильный лопух? Наемный охранник Джексон Хили и частный детектив Холланд Марч вынуждены работать в паре, чтобы распутать плевое дело о пропавшей девушке, которое оборачивается преступлением века.
    Смогут ли парни разгадать сложный ребус, если у каждого из них - свои, весьма индивидуальные методы...
    Release Date: 2016-05-15T08:00:00Z
    Genre: Thriller
    Artist: Shane Black
    Name: The Nice Guys

    MediaInfo

    General
    Complete name                            : /Users/imac/HandBrake/The Nice Guys (1080p HD).m4v
    Format                                   : MPEG-4
    Codec ID                                 : M4V  (M4V /M4A /mp42/isom)
    File size                                : 7.57 GiB
    Duration                                 : 1 h 55 min
    Overall bit rate mode                    : Variable
    Overall bit rate                         : 9 343 kb/s
    Movie name                               : The Nice Guys
    Performer                                : Shane Black
    Director                                 : Шейн Блэк
    Actor                                    : Райан Гослинг / Ким Бейсингер / Рассел Кроу / Энгаури Райс / Мэтт Бомер / Маргарет Куэлли / Йайа ДаКоста / Кит Дэвид / Бо Напп / Лоис Смит
    Screenplay by                            : Шейн Блэк / Энтони Багароцци
    Producer                                 : Джоэл Силвер / Аарон Ауч / Энтони Багароцци
    Production studio                        : Warner Bros.
    Genre                                    : Thriller
    ContentType                              : Short Film
    Description                              : Что бывает, когда напарником брутального костолома становится субтильный лопух? Наемный охранник Джексон Хили и частный детектив Холланд Марч вынуждены работать в паре, чтобы распутать плевое дело о пропавшей девушке, которое оборачивается преступлением века.  / Смогут ли парни разгадать сложный ребус, если у каждого из них - свои, весьма индивидуальные методы...
    Recorded date                            : UTC 2016-05-15 08:00:00
    Encoded date                             : UTC 2016-08-14 10:20:45
    Tagged date                              : UTC 2016-08-14 10:24:45
    Copyright                                : © 2016 Warner Bros. Entertainment Inc.
    Cover                                    : Yes
    Rating                                   : None
    Title/Sort                               : Nice Guys
    LongDescription                          : Что бывает, когда напарником брутального костолома становится субтильный лопух? Наемный охранник Джексон Хили и частный детектив Холланд Марч вынуждены работать в паре, чтобы распутать плевое дело о пропавшей девушке, которое оборачивается преступлением века.  / Смогут ли парни разгадать сложный ребус, если у каждого из них - свои, весьма индивидуальные методы...
    AppleStoreCatalogID                      : 1114158810
    Vendor                                   : Apple:vendor_id:2016-841152
    ContentRating                            : mpaa|R|400|Rated R for violence, sexuality, nudity, language and brief drug use.
    Video #1
    ID                                       : 1
    Format                                   : AVC
    Format/Info                              : Advanced Video Codec
    Format profile                           : High@L4
    Format settings, CABAC                   : Yes
    Format settings, ReFrames                : 4 frames
    Codec ID                                 : avc1
    Codec ID/Info                            : Advanced Video Coding
    Duration                                 : 1 h 55 min
    Source duration                          : 1 h 55 min
    Bit rate                                 : 8 000 kb/s
    Width                                    : 1 920 pixels
    Height                                   : 800 pixels
    Display aspect ratio                     : 2.40:1
    Frame rate mode                          : Variable
    Frame rate                               : 23.976 (24000/1001) FPS
    Minimum frame rate                       : 23.810 FPS
    Maximum frame rate                       : 24.246 FPS
    Color space                              : YUV
    Chroma subsampling                       : 4:2:0
    Bit depth                                : 8 bits
    Scan type                                : Progressive
    Bits/(Pixel*Frame)                       : 0.217
    Stream size                              : 6.47 GiB (86%)
    Source stream size                       : 6.47 GiB (86%)
    Title                                    : Main Program
    Writing library                          : x264 core 142 r2479 dd79a61
    Encoding settings                        : cabac=1 / ref=4 / deblock=1:-2:-2 / analyse=0x3:0x133 / me=umh / subme=10 / psy=1 / psy_rd=1.00:0.15 / mixed_ref=1 / me_range=32 / chroma_me=1 / trellis=2 / 8x8dct=1 / cqm=0 / deadzone=21,11 / fast_pskip=0 / chroma_qp_offset=-3 / threads=36 / lookahead_threads=6 / sliced_threads=0 / nr=0 / decimate=0 / interlaced=0 / bluray_compat=0 / constrained_intra=0 / bframes=16 / b_pyramid=2 / b_adapt=2 / b_bias=0 / direct=3 / weightb=1 / open_gop=0 / weightp=2 / keyint=240 / keyint_min=24 / scenecut=40 / intra_refresh=0 / rc_lookahead=60 / rc=2pass / mbtree=1 / bitrate=8000 / ratetol=1.0 / qcomp=0.70 / qpmin=0 / qpmax=69 / qpstep=4 / cplxblur=20.0 / qblur=0.5 / vbv_maxrate=25000 / vbv_bufsize=25000 / nal_hrd=none / filler=0 / ip_ratio=1.40 / aq=1:1.00
    Language                                 : English
    Encoded date                             : UTC 2016-08-14 10:20:45
    Tagged date                              : UTC 2016-08-14 10:21:47
    Color range                              : Limited
    Color primaries                          : BT.709
    Transfer characteristics                 : BT.709
    Matrix coefficients                      : BT.709
    Menus                                    : 8,9
    Video #2
    ID                                       : 9
    Format                                   : JPEG
    Codec ID                                 : jpeg
    Duration                                 : 1 h 55 min
    Source duration                          : 1 h 50 min
    Bit rate mode                            : Variable
    Bit rate                                 : 651 b/s
    Width                                    : 640 pixels
    Height                                   : 266 pixels
    Display aspect ratio                     : 2.40:1
    Frame rate mode                          : Variable
    Frame rate                               : 0.002 FPS
    Minimum frame rate                       : 0.002 FPS
    Maximum frame rate                       : 0.007 FPS
    Color space                              : YUV
    Chroma subsampling                       : 4:2:0
    Bit depth                                : 8 bits
    Compression mode                         : Lossy
    Bits/(Pixel*Frame)                       : 1.912
    Stream size                              : 477 KiB (0%)
    Source stream size                       : 477 KiB (0%)
    Title                                    : Chapter Images
    Language                                 : English
    Default                                  : No
    Encoded date                             : UTC 2016-08-14 10:22:23
    Tagged date                              : UTC 2016-08-14 10:22:23
    Menu For                                 : 1
    Audio #1
    ID                                       : 2
    Format                                   : AAC
    Format/Info                              : Advanced Audio Codec
    Format profile                           : LC
    Codec ID                                 : 40
    Duration                                 : 1 h 55 min
    Bit rate mode                            : Variable
    Bit rate                                 : 158 kb/s
    Maximum bit rate                         : 272 kb/s
    Channel(s)                               : 2 channels
    Channel positions                        : Front: L R
    Sampling rate                            : 48.0 kHz
    Frame rate                               : 46.875 FPS (1024 spf)
    Compression mode                         : Lossy
    Stream size                              : 131 MiB (2%)
    Title                                    : Russian Stereo
    Language                                 : Russian
    Default                                  : Yes
    Alternate group                          : 1
    Encoded date                             : UTC 2016-08-14 10:20:45
    Tagged date                              : UTC 2016-08-14 10:20:52
    Fallback From                            : 4
    Menus                                    : 8
    Audio #2
    ID                                       : 3
    Format                                   : AAC
    Format/Info                              : Advanced Audio Codec
    Format profile                           : LC
    Codec ID                                 : 40
    Duration                                 : 1 h 55 min
    Bit rate mode                            : Variable
    Bit rate                                 : 157 kb/s
    Maximum bit rate                         : 248 kb/s
    Channel(s)                               : 2 channels
    Channel positions                        : Front: L R
    Sampling rate                            : 48.0 kHz
    Frame rate                               : 46.875 FPS (1024 spf)
    Compression mode                         : Lossy
    Stream size                              : 130 MiB (2%)
    Title                                    : English Stereo
    Language                                 : English
    Default                                  : No
    Alternate group                          : 1
    Encoded date                             : UTC 2016-08-14 10:20:45
    Tagged date                              : UTC 2016-08-14 10:21:47
    Fallback From                            : 5
    Audio #3
    ID                                       : 4
    Format                                   : AC-3
    Format/Info                              : Audio Coding 3
    Mode extension                           : CM (complete main)
    Format settings, Endianness              : Big
    Codec ID                                 : ac-3
    Duration                                 : 1 h 55 min
    Bit rate mode                            : Constant
    Bit rate                                 : 384 kb/s
    Channel(s)                               : 6 channels
    Channel positions                        : Front: L C R, Side: L R, LFE
    Sampling rate                            : 48.0 kHz
    Frame rate                               : 31.250 FPS (1536 spf)
    Bit depth                                : 16 bits
    Compression mode                         : Lossy
    Stream size                              : 318 MiB (4%)
    Title                                    : Russian DD 5.1
    Language                                 : Russian
    Default                                  : Inherited From: 2
    Alternate group                          : 1
    Encoded date                             : UTC 2016-08-14 10:20:45
    Tagged date                              : UTC 2016-08-14 10:20:50
    Fallback To                              : 2
    Audio #4
    ID                                       : 5
    Format                                   : AC-3
    Format/Info                              : Audio Coding 3
    Mode extension                           : CM (complete main)
    Format settings, Endianness              : Big
    Codec ID                                 : ac-3
    Duration                                 : 1 h 55 min
    Bit rate mode                            : Constant
    Bit rate                                 : 640 kb/s
    Channel(s)                               : 6 channels
    Channel positions                        : Front: L C R, Side: L R, LFE
    Sampling rate                            : 48.0 kHz
    Frame rate                               : 31.250 FPS (1536 spf)
    Bit depth                                : 16 bits
    Compression mode                         : Lossy
    Stream size                              : 531 MiB (7%)
    Title                                    : English DD 5.1
    Language                                 : English
    Default                                  : No
    Alternate group                          : 1
    Encoded date                             : UTC 2016-08-14 10:20:45
    Tagged date                              : UTC 2016-08-14 10:21:47
    Fallback To                              : 3
    Text
    ID                                       : 6
    Format                                   : Timed Text
    Muxing mode                              : sbtl
    Codec ID                                 : tx3g
    Duration                                 : 1 h 50 min
    Bit rate mode                            : Variable
    Bit rate                                 : 92 b/s
    Stream size                              : 74.9 KiB (0%)
    Title                                    : English full
    Language                                 : English
    Default                                  : Yes
    Forced                                   : No
    Alternate group                          : 2
    Encoded date                             : UTC 2016-08-14 10:20:45
    Tagged date                              : UTC 2016-08-14 10:21:45
    Menu #1
    00:00:00.000                             : Chapter 1
    00:10:41.766                             : Chapter 2
    00:21:07.391                             : Chapter 3
    00:29:12.960                             : Chapter 4
    00:40:12.827                             : Chapter 5
    00:50:50.547                             : Chapter 6
    01:01:02.117                             : Chapter 7
    01:10:15.586                             : Chapter 8
    01:19:59.169                             : Chapter 9
    01:29:40.875                             : Chapter 10
    01:40:10.504                             : Chapter 11
    01:48:35.884                             : Chapter 12
    01:50:50.102                             : Chapter 13
    Menu #2
    ID                                       : 8
    Codec ID                                 : text
    Duration                                 : 1 h 55 min
    Language                                 : English
    Encoded date                             : UTC 2016-08-14 10:21:47
    Tagged date                              : UTC 2016-08-14 10:21:47
    Menu For                                 : 2,1
    00:00:00.000                             : Chapter 1
    00:10:41.766                             : Chapter 2
    00:21:07.391                             : Chapter 3
    00:29:12.960                             : Chapter 4
    00:40:12.827                             : Chapter 5
    00:50:50.547                             : Chapter 6
    01:01:02.117                             : Chapter 7
    01:10:15.586                             : Chapter 8
    01:19:59.169                             : Chapter 9
    01:29:40.875                             : Chapter 10
    01:40:10.504                             : Chapter 11
    01:48:35.884                             : Chapter 12
    01:50:50.102                             : Chapter 13
    Bit rate mode                            : VBR

    x264 лог

    x264 [info]: frame I:1242  Avg QP:14.72  size:210698
    x264 [info]: frame P:38139 Avg QP:17.63  size: 74303
    x264 [info]: frame B:127423 Avg QP:18.54  size: 30261
    x264 [info]: consecutive B-frames:  2.3%  4.2%  7.0% 29.5% 15.9% 26.7%  7.6%  5.5%  0.8%  0.1%  0.2%  0.2%  0.0%  0.0%  0.0%  0.0%  0.1%
    x264 [info]: mb I  I16..4: 13.6% 68.0% 18.3%
    x264 [info]: mb P  I16..4:  2.0% 16.0%  1.4%  P16..4: 39.6% 20.9% 13.1%  0.5%  0.2%    skip: 6.3%
    x264 [info]: mb B  I16..4:  0.1%  1.6%  0.1%  B16..8: 44.2% 12.0%  2.9%  direct: 7.6%  skip:31.5%  L0:43.5% L1:43.6% BI:13.0%
    x264 [info]: 8x8 transform intra:81.8% inter:47.1%
    x264 [info]: direct mvs  spatial:98.9% temporal:1.1%
    x264 [info]: coded y,uvDC,uvAC intra: 89.7% 89.3% 74.5% inter: 31.7% 33.1% 16.5%
    x264 [info]: i16 v,h,dc,p: 29% 11% 15% 46%
    x264 [info]: i8 v,h,dc,ddl,ddr,vr,hd,vl,hu: 10%  8% 12% 10% 13% 12% 11% 12% 12%
    x264 [info]: i4 v,h,dc,ddl,ddr,vr,hd,vl,hu: 11%  9%  5%  9% 15% 14% 13% 11% 13%
    x264 [info]: i8c dc,h,v,p: 49% 17% 17% 17%
    x264 [info]: Weighted P-Frames: Y:1.8% UV:1.0%
    x264 [info]: ref P L0: 53.1%  8.4% 27.2% 10.3%  1.0%  0.0%
    x264 [info]: ref B L0: 86.2% 11.4%  2.4%
    x264 [info]: ref B L1: 93.1%  6.9%
    x264 [info]: kb/s:7993.48

    Скриншоты

    -

    Релиз подготовлен для просмотра на Apple TV, iPad, iPhone, iPod Touch.
    Для просмотра данного релиза на компьютере с ОС Windows рекомендуется использовать VLC media player
    Скачать .torrent

    Скачать торрент-файл бесплатно и на максимальной скорости!

    Как скачивать? · Что такое торрент? · Рейтинг и ограничения

    !ВНИМАНИЕ!
    Сайт не распространяет и не хранит электронные версии произведений, а занимается лишь лишь предоставлением доступа к создаваемому пользователями каталогу ссылок на торрент-файлы, которые содержат только списки хеш-сумм, убедительная просьба с жалобами обращаться напрямую к пользователю. Файлы для обмена на трекере предоставлены пользователями сайта, и администрация не несёт ответственности за их содержание. Просьба не заливать файлы, защищенные авторскими правами, а также файлы нелегального содержания!


    _________________
    [Профиль] [ЛС]
    Показать сообщения:    
    Ответить на тему

    Текущее время: Сегодня, в 18:10

    Часовой пояс: GMT + 2



    Вы не можете начинать темы
    Вы не можете отвечать на сообщения
    Вы не можете редактировать свои сообщения
    Вы не можете удалять свои сообщения
    Вы не можете голосовать в опросах
    Вы не можете прикреплять файлы к сообщениям
    Вы не можете скачивать файлы