BitTorrentTracker PerecTracker.org
BitTorrentTracker PerecTracker.org
    
Регистрация  ·  Вход
 
 · 
Забыли пароль?

  • И грянул шторм / The Finest Hours (Крэйг Гиллеспи / Craig Gillespie) [2016, США, боевик, триллер, драма, история, BDRip] Dub [EUR]

    Ответить на тему
     
    Автор Сообщение

    rechyn

    Создавать темы 14-Авг-2016 15:24

           

    [Цитировать]

    И грянул шторм / The Finest Hours
    Страна: США
    Жанр: боевик, триллер, драма, история
    Год выпуска: 2016
    Продолжительность: 01:57:18
    Перевод: Профессиональный (дублированный) [EUR]
    Cубтитры: нет
    Оригинальная аудиодорожка: нет-Режиссер: Крэйг Гиллеспи / Craig Gillespie-В ролях: Крис Пайн, Кейси Аффлек, Бен Фостер, Эрик Бана, Холлидей Грейнджер, Джон Ортис, Кайл Галлнер, Джон Магаро, Грэм МакТавиш, Майкл Рэймонд-Джеймс-Описание: Сюжет фильма основан на реальных событиях, произошедших в 1952 году, когда сотрудники береговой охраны в самый разгар шторма, используя деревянные моторные лодки, пытались спасти экипаж двух нефтяных танкеров.-Качество видео: BDRip | BDRemux 1080p
    Формат видео: AVI
    Видео: 688x288 (2.39:1), 23.976 fps, XviD build 73 ~751 kbps avg, 0.16 bit/pixel
    Аудио: 48 kHz, MPEG Layer 3, 2 ch, ~128.00 kbps avg--

    Знаете ли вы, что...

    • Лодка CG 36500, спущенная на воду судном береговой охраны для спасения экипажа танкера «Пендлтон», до сих пор поддерживается в идеальном состоянии в Рок Харборе, Орлеан, штат Массачусетс.
    • Полицейский автомобиль старой модели, использованный в фильме, одолжили у городской полиции Орлеана в штате Массачусетс.
    • В 2011 году Береговая охрана США назвала 46-метровый высокоскоростной катер нового проекта в честь старшины шлюпки CG 36500 Бернарда Уэббера. Катера этого проекта стали первыми судами, которые называют в честь военнослужащих рядового и сержантского состава.
    • Съёмки фильма проходили в основном в городе Чатем, штат Массачусетс.
    • Бен Фостер и Эрик Бана сыграли «морских котиков» в фильме «Уцелевший» (2013), а Кайл Галлнер исполнил роль морского пехотинца в фильме «Снайпер» (2014).
    • Крис Пайн и Эрик Бана вместе снялись в фильме «Звёздный путь» (2009).
    • Крис Пайн и Холлидей Грейнджер уже снимались в фильмах студии «Disney», Пайн - в фильме «Чем дальше в лес...» (2014) и «Дневники принцессы 2: Как стать королевой» (2004), а Грейнджер - в «Золушке» (2015).
    • Кейси Аффлек и Джош Стюарт вместе работали в фильме «Интерстеллар» (2014). Стюарт на экране не появлялся, но озвучивал робота КЕЙС.
    • Кайл Галлнер и Майкл Реймонд-Джеймс снимались в популярном телесериале «Ходячие мертвецы» (2010) телеканала «AMC», однако в разных сезонах. Галлнер исполнял роль Зака в 4 сезоне, а Реймонд-Джеймс сыграл Дэйва во 2 сезоне.
    • Кейси Аффлек и Бен Фостер вместе работали в фильме «В бегах» (2013).

    MI

    Format                      : AVI
    Format/Info                 : Audio Video Interleave
    File size                   : 746 MiB
    Duration                    : 1h 57mn
    Overall bit rate            : 889 Kbps
    Writing application         : VirtualDubMod 1.5.10.3 | www.virtualdub-fr.org || (build 2550/release)
    Writing library             : VirtualDubMod build 2550/release
    Video
    ID                          : 0
    Format                      : MPEG-4 Visual
    Format profile              : Advanced Simple@L5
    Format settings, BVOP       : 1
    Format settings, QPel       : No
    Format settings, GMC        : No warppoints
    Format settings, Matrix     : Custom
    Codec ID                    : XVID
    Codec ID/Hint               : XviD
    Duration                    : 1h 57mn
    Bit rate                    : 752 Kbps
    Width                       : 688 pixels
    Height                      : 288 pixels
    Display aspect ratio        : 2.40:1
    Frame rate                  : 23.976 (23976/1000) fps
    Color space                 : YUV
    Chroma subsampling          : 4:2:0
    Bit depth                   : 8 bits
    Scan type                   : Progressive
    Compression mode            : Lossy
    Bits/(Pixel*Frame)          : 0.158
    Stream size                 : 631 MiB (85%)
    Writing library             : XviD 73
    Audio
    ID                          : 1
    Format                      : MPEG Audio
    Format version              : Version 1
    Format profile              : Layer 3
    Codec ID                    : 55
    Codec ID/Hint               : MP3
    Duration                    : 1h 57mn
    Bit rate mode               : Constant
    Bit rate                    : 128 Kbps
    Channel(s)                  : 2 channels
    Sampling rate               : 48.0 KHz
    Compression mode            : Lossy
    Stream size                 : 107 MiB (14%)
    Alignment                   : Aligned on interleaves
    Interleave, duration        : 42 ms (1.00 video frame)
    Interleave, preload duratio : 504 ms
    Writing library             : LAME3.99r
    Encoding settings           : -m s -V 4 -q 2 -lowpass 17 -b 128

    Скриншоты

    Скачать .torrent

    Скачать торрент-файл бесплатно и на максимальной скорости!

    Как скачивать? · Что такое торрент? · Рейтинг и ограничения

    !ВНИМАНИЕ!
    Сайт не распространяет и не хранит электронные версии произведений, а занимается лишь лишь предоставлением доступа к создаваемому пользователями каталогу ссылок на торрент-файлы, которые содержат только списки хеш-сумм, убедительная просьба с жалобами обращаться напрямую к пользователю. Файлы для обмена на трекере предоставлены пользователями сайта, и администрация не несёт ответственности за их содержание. Просьба не заливать файлы, защищенные авторскими правами, а также файлы нелегального содержания!


    _________________
    [Профиль] [ЛС]
    Показать сообщения:    
    Ответить на тему

    Текущее время: Сегодня, в 16:12

    Часовой пояс: GMT + 2



    Вы не можете начинать темы
    Вы не можете отвечать на сообщения
    Вы не можете редактировать свои сообщения
    Вы не можете удалять свои сообщения
    Вы не можете голосовать в опросах
    Вы не можете прикреплять файлы к сообщениям
    Вы не можете скачивать файлы