BitTorrentTracker PerecTracker.org
BitTorrentTracker PerecTracker.org
    
Регистрация  ·  Вход
 
 · 
Забыли пароль?

  • Подписание Владимиром Путиным документов о присоединении Крыма к России (18.03.2014) [2014, Документальный, HDTV 1080i]

    Ответить на тему
     
    Автор Сообщение

    Columb

    Создавать темы 18-Мар-2014 16:37

           

    [Цитировать]

    Подписание Владимиром Путиным документов о присоединении Крыма к России (18.03.2014)
    Год выпуска: 2014
    Страна: Россия
    Студия: Первый канал, ВГТРК
    Жанр: Документальный
    Продолжительность: 00:03:55
    Перевод: Не требуется
    Русские субтитры: нет
    Описание: Договор между Российской Федерацией и Республикой Крым о принятии в Российскую Федерацию Республики Крым и образовании в составе Российской Федерации новых субъектов подписан 18 марта 2014 года в Кремле. Документ скреплён подписями Президента Российской Федерации Владимира Путина, Председателя Государственного Совета Республики Крым Владимира Константинова, Председателя Совета министров Республики Крым Сергея Аксёнова и председателя координационного совета по организации Севастопольского городского управления по обеспечению жизнедеятельности Севастополя Алексея Чалого. Договор основывается на свободном и добровольном волеизъявлении народов Крыма на общекрымском референдуме, проведенном в Автономной Республике Крым и городе Севастополе 16 марта 2014 года, в ходе которого народы Крыма приняли решение о воссоединении с Россией. Республика Крым считается принятой в Российскую Федерацию с даты подписания Договора. Со дня принятия в Российскую Федерацию Республики Крым в составе Российской Федерации образуются новые субъекты – Республика Крым и город федерального значения Севастополь.
    Источник: собственный рип
    Доп. информация: Релиз -

    Рип чистый. Без посторонних надписей. Выкладывается как есть.
    Качество: HDTV 1080i
    Контейнер: TS
    Видео кодек: AVC
    Аудио кодек: AC3
    Видео: 1920x1080 (16:9) 25.000 fps 8 627 Kbps, 0.166 bit/pixel
    Аудио: AC3 384 Kbps, 6 channels

    Скриншоты

    Скринлист

    MI

    GeneralID : 1 (0x1)Complete name : L:\Подписание Владимиром Путиным документов о присоединении Крыма к России (2014, Документальный, HDTV 1080i) (MYDIMKA).tsFormat : MPEG-TSFile size : 264 MiBDuration : 3mn 54sOverall bit rate mode : VariableOverall bit rate : 9 434 Kbps
    VideoID : 101 (0x65)Menu ID : 1 (0x1)Format : AVCFormat/Info : Advanced Video CodecFormat profile : High@L4.0Format settings, CABAC : YesFormat settings, ReFrames : 3 framesFormat settings, GOP : M=4, N=28Codec ID : 27Duration : 3mn 54sBit rate : 8 579 KbpsWidth : 1 920 pixelsHeight : 1 080 pixelsDisplay aspect ratio : 16:9Frame rate : 25.000 fpsStandard : ComponentColor space : YUVChroma subsampling : 4:2:0Bit depth : 8 bitsScan type : InterlacedScan order : Top Field FirstBits/(Pixel*Frame) : 0.165Stream size : 240 MiB (91%)Color primaries : BT.709Transfer characteristics : BT.709Matrix coefficients : BT.709
    AudioID : 109 (0x6D)Menu ID : 1 (0x1)Format : AC-3Format/Info : Audio Coding 3Mode extension : CM (complete main)Format settings, Endianness : BigCodec ID : 6Duration : 3mn 54sBit rate mode : ConstantBit rate : 384 KbpsChannel count : 6 channelsChannel positions : Front: L C R, Side: L R, LFESampling rate : 48.0 KHzBit depth : 16 bitsCompression mode : LossyStream size : 10.7 MiB (4%)Language : Russian
    Скачать .torrent

    Скачать торрент-файл бесплатно и на максимальной скорости!

    Как скачивать? · Что такое торрент? · Рейтинг и ограничения

    !ВНИМАНИЕ!
    Сайт не распространяет и не хранит электронные версии произведений, а занимается лишь лишь предоставлением доступа к создаваемому пользователями каталогу ссылок на торрент-файлы, которые содержат только списки хеш-сумм, убедительная просьба с жалобами обращаться напрямую к пользователю. Файлы для обмена на трекере предоставлены пользователями сайта, и администрация не несёт ответственности за их содержание. Просьба не заливать файлы, защищенные авторскими правами, а также файлы нелегального содержания!

    [Профиль] [ЛС]
    Показать сообщения:    
    Ответить на тему

    Текущее время: Сегодня, в 12:20

    Часовой пояс: GMT + 2



    Вы не можете начинать темы
    Вы не можете отвечать на сообщения
    Вы не можете редактировать свои сообщения
    Вы не можете удалять свои сообщения
    Вы не можете голосовать в опросах
    Вы не можете прикреплять файлы к сообщениям
    Вы не можете скачивать файлы