Register  ·  Log in
Forgot password?

  • Путь на юг / Southbound (Роксанна Бенжамин / Roxanne Benjamin, Дэвид Брукнер / David Bruckner, Патрик Хорват / Patrick Horvath) [2015, США, ужасы, фантастика, триллер, HDRip] VO (Васька Куролесов)

    Reply to topic
    Author Message


    Post 13-Aug-2016 23:43



    Путь на юг / Southbound
    Страна: США
    Жанр: ужасы, фантастика, триллер
    Год выпуска: 2015
    Продолжительность: 01:29:03
    Перевод: Одноголосый закадровый Васька Куролесов (по переводу Enigma)
    Cубтитры: нет
    Режиссер: Роксанна Бенжамин / Roxanne Benjamin, Дэвид Брукнер / David Bruckner, Патрик Хорват / Patrick Horvath
    В ролях: Кейт Бихан, Мэттью Беттинелли, Сьюзэн Бурк, Зои Купер, Джералд Дауни, Карла Дродж, Ларри Фессенден, Дэна Гулд, Хасси Харрисон, Дэйв Джонсон
    Описание: Пустынный участок дороги, усталые путники — двое мужчин, бегущих от своего прошлого, группа на пути к следующему концерту, человек пытающийся попасть домой, брат в поисках давно потерянной сестры и семьи на отдыхе — вынуждены противостоять своим страхам и самым темным тайнам, чтобы раскаяться на дороге.
    Качество видео: HDRip
    Формат видео: AVI
    Видео: 720x304 (2.37:1), 23.976 fps, XviD build 73 ~1030 kbps avg, 0.20 bit/pixel
    Аудио: 48 kHz, MPEG Layer 3, 2 ch, ~128.00 kbps avg


    Complete name : E:\Zona Downloads\Southbound.2015.L1.HDRip..avi
    Format : AVI
    Format/Info : Audio Video Interleave
    File size : 742 MiB
    Duration : 1h 28mn
    Overall bit rate : 1 168 Kbps
    Writing application : VirtualDubMod | || (build 2550/release)
    Writing library : VirtualDubMod build 2550/release
    ID : 0
    Format : MPEG-4 Visual
    Format profile : Advanced Simple@L5
    Format settings, BVOP : 1
    Format settings, QPel : No
    Format settings, GMC : No warppoints
    Format settings, Matrix : Custom
    Codec ID : XVID
    Codec ID/Hint : XviD
    Duration : 1h 28mn
    Bit rate : 1 030 Kbps
    Width : 720 pixels
    Height : 304 pixels
    Display aspect ratio : 2.35:1
    Frame rate : 23.976 fps
    Color space : YUV
    Chroma subsampling : 4:2:0
    Bit depth : 8 bits
    Scan type : Progressive
    Compression mode : Lossy
    Bits/(Pixel*Frame) : 0.196
    Stream size : 654 MiB (88%)
    Writing library : XviD 73
    ID : 1
    Format : MPEG Audio
    Format version : Version 1
    Format profile : Layer 3
    Codec ID : 55
    Codec ID/Hint : MP3
    Duration : 1h 28mn
    Bit rate mode : Constant
    Bit rate : 128 Kbps
    Channel(s) : 2 channels
    Sampling rate : 48.0 KHz
    Compression mode : Lossy
    Stream size : 81.3 MiB (11%)
    Alignment : Aligned on interleaves
    Interleave, duration : 42 ms (1.00 video frame)
    Interleave, preload duration : 504 ms
    Writing library : LAME3.99r
    Encoding settings : -m s -V 4 -q 2 -lowpass 17 -b 128

    Скриншот c названием фильма


    Download .torrent

    Download free and at maximum speed!

    How to Download? · What is a torrent? · Ratings and Limitations

    The site does not extend and does not store electronic(digital) versions of products, and only gives access to a reference catalogue created by users on torrent-files which contain only lists of the hash-sums, the earnest entreaty, with complaints(abuse) to access directly to the user. Files for an exchange on tracker are given by users of a site, and the administration does not bear the responsibility for their maintenance. The request to not fill in the files protected by copyrights, and also files of the illegal maintenance!

    [Profile] [PM]
    Display posts from previous:    
    Reply to topic

    The time now is: Today 00:02

    All times are GMT + 3 Hours

    You cannot post new topics in this forum
    You cannot reply to topics in this forum
    You cannot edit your posts in this forum
    You cannot delete your posts in this forum
    You cannot vote in polls in this forum
    You cannot attach files in this forum
    You cannot download files in this forum