BitTorrentTracker PerecTracker.org
BitTorrentTracker PerecTracker.org
    
Регистрация  ·  Вход
 
 · 
Забыли пароль?

  • Обращение Президента Российской Федерации Владимира Путина о присоединении Крыма (18.03.2014) [2014, Документальный, HDTV 1080i]

    Ответить на тему
     
    Автор Сообщение

    Columb

    Создавать темы 18-Мар-2014 16:35

           

    [Цитировать]

    Обращение Президента Российской Федерации Владимира Путина о присоединении Крыма (18.03.2014)
    Год выпуска: 2014
    Страна: Россия
    Студия: Первый канал, ВГТРК
    Жанр: Документальный
    Продолжительность: 00:46:48
    Перевод: Не требуется
    Русские субтитры: нет
    Описание: Обращение Президента Российской Федерации Владимира Путина.
    Президент России Владимир Путин выступил в Кремле перед депутатами Госдумы, членами Совета Федерации, руководителями регионов РФ и представителями гражданского общества в связи с обращением республики Крым и города Севастополь о приеме в состав Российской Федерации.
    Источник: собственный рип
    Доп. информация: Релиз -

    Рип чистый. Без посторонних надписей. Выкладывается как есть.
    Качество: HDTV 1080i
    Контейнер: TS
    Видео кодек: AVC
    Аудио кодек: AC3
    Видео: 1920x1080 (16:9) 25.000 fps 8 627 Kbps, 0.166 bit/pixel
    Аудио: AC3 384 Kbps, 6 channels

    Скриншоты




    Скринлист

    MI

    GeneralID : 1 (0x1)Complete name : L:\Обращение Президента России Владимира Путина о присоединении Крыма (2014, Документальный, HDTV 1080i) (MYDIMKA).tsFormat : MPEG-TSFile size : 3.08 GiBDuration : 46mn 48sOverall bit rate mode : VariableOverall bit rate : 9 430 Kbps
    VideoID : 101 (0x65)Menu ID : 1 (0x1)Format : AVCFormat/Info : Advanced Video CodecFormat profile : High@L4.0Format settings, CABAC : YesFormat settings, ReFrames : 3 framesCodec ID : 27Duration : 46mn 48sBit rate : 8 576 KbpsWidth : 1 920 pixelsHeight : 1 080 pixelsDisplay aspect ratio : 16:9Frame rate : 25.000 fpsStandard : ComponentColor space : YUVChroma subsampling : 4:2:0Bit depth : 8 bitsScan type : InterlacedScan order : Top Field FirstBits/(Pixel*Frame) : 0.165Stream size : 2.80 GiB (91%)Color primaries : BT.709Transfer characteristics : BT.709Matrix coefficients : BT.709
    AudioID : 109 (0x6D)Menu ID : 1 (0x1)Format : AC-3Format/Info : Audio Coding 3Mode extension : CM (complete main)Format settings, Endianness : BigCodec ID : 6Duration : 46mn 48sBit rate mode : ConstantBit rate : 384 KbpsChannel count : 6 channelsChannel positions : Front: L C R, Side: L R, LFESampling rate : 48.0 KHzBit depth : 16 bitsCompression mode : LossyStream size : 129 MiB (4%)Language : Russian
    Скачать .torrent

    Скачать торрент-файл бесплатно и на максимальной скорости!

    Как скачивать? · Что такое торрент? · Рейтинг и ограничения

    !ВНИМАНИЕ!
    Сайт не распространяет и не хранит электронные версии произведений, а занимается лишь лишь предоставлением доступа к создаваемому пользователями каталогу ссылок на торрент-файлы, которые содержат только списки хеш-сумм, убедительная просьба с жалобами обращаться напрямую к пользователю. Файлы для обмена на трекере предоставлены пользователями сайта, и администрация не несёт ответственности за их содержание. Просьба не заливать файлы, защищенные авторскими правами, а также файлы нелегального содержания!

    [Профиль] [ЛС]
    Показать сообщения:    
    Ответить на тему

    Текущее время: Сегодня, в 23:09

    Часовой пояс: GMT + 2



    Вы не можете начинать темы
    Вы не можете отвечать на сообщения
    Вы не можете редактировать свои сообщения
    Вы не можете удалять свои сообщения
    Вы не можете голосовать в опросах
    Вы не можете прикреплять файлы к сообщениям
    Вы не можете скачивать файлы