BitTorrentTracker PerecTracker.org
BitTorrentTracker PerecTracker.org
    
Регистрация  ·  Вход
 
 · 
Забыли пароль?

  • Сомния / Before I Wake (Майк Флэнеган / Mike Flanagan) [2016, США, Ужасы, фэнтези, триллер, драма, HDRip] Dub (iTunes)

    Ответить на тему
     
    Автор Сообщение

    rechyn

    Создавать темы 13-Авг-2016 14:19

           

    [Цитировать]

    Сомния / Before I Wake
    Страна: США
    Жанр: Ужасы, фэнтези, триллер, драма
    Год выпуска: 2016
    Продолжительность: 01:36:41
    Перевод: Профессиональный (дублированный) - iTunes
    Cубтитры: нет
    Оригинальная аудиодорожка: нет-Режиссер: Майк Флэнеган / Mike Flanagan-В ролях: Джейкоб Трамбле, Кейт Босворт, Томас Джейн, Скотти Томпсон, Аннабет Гиш, Дэш Майок, Джей Карнс, Кайла Дивер, Лэнс Э. Николс, Кортни Белл-Описание: У молодой пары, потерявшей маленького сына, появляется второй шанс на счастливую жизнь, когда они берут из приюта замечательного восьмилетнего Коди. По неизвестной им причине он очень боится засыпать по ночам, но вскоре оказывается, что дело в необычном даре Коди — пока он спит, его сны оживают. Каждую ночь новым родителям могут явиться либо прекрасные видения его воображения, либо леденящие душу порождения его кошмаров. И эти кошмары смертельно опасны.-Качество видео: HDRip
    Формат видео: AVI
    Видео: 688x288 (2.39:1), 23.976 fps, XviD build 73 ~938 kbps avg, 0.20 bit/pixel
    Аудио: 48 kHz, MPEG Layer 3, 2 ch, ~128.00 kbps avg--

    MediaInfo

    Format                      : AVI
    Format/Info                 : Audio Video Interleave
    File size                   : 744 MiB
    Duration                    : 1h 36mn
    Overall bit rate            : 1 076 Kbps
    Writing application         : VirtualDubMod 1.5.10.3 | www.virtualdub-fr.org || (build 2550/release)
    Writing library             : VirtualDubMod build 2550/release
    Video
    ID                          : 0
    Format                      : MPEG-4 Visual
    Format profile              : Advanced Simple@L5
    Format settings, BVOP       : 1
    Format settings, QPel       : No
    Format settings, GMC        : No warppoints
    Format settings, Matrix     : Custom
    Codec ID                    : XVID
    Codec ID/Hint               : XviD
    Duration                    : 1h 36mn
    Bit rate                    : 939 Kbps
    Width                       : 688 pixels
    Height                      : 288 pixels
    Display aspect ratio        : 2.40:1
    Frame rate                  : 23.976 (23976/1000) fps
    Color space                 : YUV
    Chroma subsampling          : 4:2:0
    Bit depth                   : 8 bits
    Scan type                   : Progressive
    Compression mode            : Lossy
    Bits/(Pixel*Frame)          : 0.198
    Stream size                 : 649 MiB (87%)
    Writing library             : XviD 73
    Audio
    ID                          : 1
    Format                      : MPEG Audio
    Format version              : Version 1
    Format profile              : Layer 3
    Codec ID                    : 55
    Codec ID/Hint               : MP3
    Duration                    : 1h 36mn
    Bit rate mode               : Constant
    Bit rate                    : 128 Kbps
    Channel(s)                  : 2 channels
    Sampling rate               : 48.0 KHz
    Compression mode            : Lossy
    Stream size                 : 88.5 MiB (12%)
    Alignment                   : Aligned on interleaves
    Interleave, duration        : 42 ms (1.00 video frame)
    Interleave, preload duratio : 504 ms
    Writing library             : LAME3.99r
    Encoding settings           : -m s -V 4 -q 2 -lowpass 17 -b 128

    Скриншоты

    Скачать .torrent

    Скачать торрент-файл бесплатно и на максимальной скорости!

    Как скачивать? · Что такое торрент? · Рейтинг и ограничения

    !ВНИМАНИЕ!
    Сайт не распространяет и не хранит электронные версии произведений, а занимается лишь лишь предоставлением доступа к создаваемому пользователями каталогу ссылок на торрент-файлы, которые содержат только списки хеш-сумм, убедительная просьба с жалобами обращаться напрямую к пользователю. Файлы для обмена на трекере предоставлены пользователями сайта, и администрация не несёт ответственности за их содержание. Просьба не заливать файлы, защищенные авторскими правами, а также файлы нелегального содержания!


    _________________
    [Профиль] [ЛС]
    Показать сообщения:    
    Ответить на тему

    Текущее время: Сегодня, в 01:59

    Часовой пояс: GMT + 2



    Вы не можете начинать темы
    Вы не можете отвечать на сообщения
    Вы не можете редактировать свои сообщения
    Вы не можете удалять свои сообщения
    Вы не можете голосовать в опросах
    Вы не можете прикреплять файлы к сообщениям
    Вы не можете скачивать файлы