BitTorrentTracker PerecTracker.org
BitTorrentTracker PerecTracker.org
    
Регистрация  ·  Вход
 
 · 
Забыли пароль?

  • Келинка Сабина / Kelinka Sabina (Нуртас Адамбай / Nurtas Adambay) [2014, Казахстан, комедия, WEB-DL]

    Ответить на тему
     
    Автор Сообщение

    Light

    Создавать темы 12-Авг-2016 21:33

           

    [Цитировать]

    Келинка Сабина /
    Kelinka Sabina
    «S O S ! ! !»Страна: Казахстан
    Жанр: комедия
    Год выпуска: 2014
    Продолжительность: 01:41:53
    Перевод: оригинальный (на русском языке)
    Режиссер:
    Нуртас Адамбай / Nurtas Adambay
    В ролях:
    Нуртас Адамбай, Айнур Ильясова, Ерлан Касымжанулы, Жан Избасар, Токжан Таханова, Алишер Орикбаев
    Описание:
    Фильм снят по мотивам популярного казахского скетч-комикса, главным титаном которого является Нуртас Адамбай, совмещающий в данной картине должности режиссера, актера, продюсера и сценариста. Поклонники КВН знают его как участника высшей лиги, выступавшего за сборную *Астана. Kz*.
    *Келинка Сабина*- это высмеивание проблем через гротеск и преувеличение, а именно того, что большая часть городской казахской молодежи очень плохо знает родной язык и
    фильм ни в коем случае нельзя воспринимать серьезно.
    Режиссер Нуртас Адамбай сам придумал своего персонажа "келинку Сабину" и снял фильм с большой любовью, блистательно сыграв главную героиню Сабину, избалованную дочь богатых алматинцев, мечтающую выйти замуж за красивого, что не очень важно и богатого, что очень обязательно, шейха арабских Эмиратов и жить в Дубаи.
    Эмират Бич, ночные тусовки, модные бренды – вот ее жизнь. Но судьба уготовила ей другие планы – Сабину похищают и выдают замуж за жителя отдаленного аула Жугеры. Девушка отныне жена пастуха, со всеми вытекающими отсюда ежедневными обязанностями келин (невестки). Теперь красавица мечтает лишь об одном: вырваться из аульного заточения...
    Комедия, с хорошим правильным юмором, описывает все "прелести" деревенской жизни в ауле, со всеми многовековыми обычаями и традициями. Красивые пейзажи, яркая картинка и показанные с юмором комичные ситуации казахских реалий, гарантируют зрителю смех и веселье.
    Бюджет картины составил 300 тысяч долларов, в прокате же картине удалось собрать более 800 тысяч. Таким образом фильм занял почетное первое место в списке самых успешных работ казахского кинематографа.
    Доп. информация:
    Сэмпл: http://multi-up.com/1113473


    Качество видео: WEB-DL
    Формат видео: AVI
    Видео: XviD, 720x408 (16:9), 24,000 fps, 0.256 бит, 1804 Кбит/сек
    Аудио: AC-3, 48,0 КГц, 192 Кбит/сек, 2 ch

    MediaInfo

    Общее
    Полное имя : D:\Келинка Сабина\Kelinka.Sabina.avi
    Формат : AVI
    Формат/Информация : Audio Video Interleave
    Размер файла : 1,45 Гбайт
    Продолжительность : 1 ч. 43 м.
    Общий поток : 2005 Кбит/сек
    Программа кодирования : VirtualDubMod 1.5.10.3 | www.virtualdub-fr.org || (build 2550/release)
    Библиотека кодирования : VirtualDubMod build 2550/release
    Видео
    Идентификатор : 0
    Формат : MPEG-4 Visual
    Профиль формата : Advanced Simple@L5
    Параметр BVOP формата : 1
    Параметр QPel формата : Нет
    Параметр GMC формата : Без точки перехода
    Параметр матрицы формата : Default (H.263)
    Идентификатор кодека : XVID
    Идентификатор кодека/Подсказка : XviD
    Продолжительность : 1 ч. 43 м.
    Битрейт : 1804 Кбит/сек
    Ширина : 720 пикселей
    Высота : 408 пикселей
    Соотношение сторон : 16:9
    Частота кадров : 24,000 кадра/сек
    Цветовое пространство : YUV
    Субдискретизация насыщенности : 4:2:0
    Битовая глубина : 8 бит
    Тип развёртки : Прогрессивная
    Метод сжатия : С потерями
    Бит/(Пиксели*Кадры) : 0.256
    Размер потока : 1,31 Гбайт (90%)
    Библиотека кодирования : XviD 1.2.1 (UTC 2008-12-04)
    Аудио
    Идентификатор : 1
    Формат : AC-3
    Формат/Информация : Audio Coding 3
    Расширение режима : CM (complete main)
    Параметр Endianness формата : Big
    Идентификатор кодека : 2000
    Продолжительность : 1 ч. 43 м.
    Вид битрейта : Постоянный
    Битрейт : 192 Кбит/сек
    Каналы : 2 канала
    Расположение каналов : Front: L R
    Частота : 48,0 КГц
    Частота кадров : 31,250 кадров/сек (1536 spf)
    Метод сжатия : С потерями
    Размер потока : 143 Мбайт (10%)
    Выравнивание : Разделение по промежуткам
    Продолжительность промежутка : 42 мс. (1,00 видеокадр)
    Время предзагрузки промежутка : 500 мс.

    Скриншот c названием фильма

    Скриншоты

    Скачать .torrent

    Скачать торрент-файл бесплатно и на максимальной скорости!

    Как скачивать? · Что такое торрент? · Рейтинг и ограничения

    !ВНИМАНИЕ!
    Сайт не распространяет и не хранит электронные версии произведений, а занимается лишь лишь предоставлением доступа к создаваемому пользователями каталогу ссылок на торрент-файлы, которые содержат только списки хеш-сумм, убедительная просьба с жалобами обращаться напрямую к пользователю. Файлы для обмена на трекере предоставлены пользователями сайта, и администрация не несёт ответственности за их содержание. Просьба не заливать файлы, защищенные авторскими правами, а также файлы нелегального содержания!


    _________________
    [Профиль] [ЛС]
    Показать сообщения:    
    Ответить на тему

    Текущее время: Сегодня, в 22:12

    Часовой пояс: GMT + 2



    Вы не можете начинать темы
    Вы не можете отвечать на сообщения
    Вы не можете редактировать свои сообщения
    Вы не можете удалять свои сообщения
    Вы не можете голосовать в опросах
    Вы не можете прикреплять файлы к сообщениям
    Вы не можете скачивать файлы