BitTorrentTracker PerecTracker.org
BitTorrentTracker PerecTracker.org
    
Регистрация  ·  Вход
 
 · 
Забыли пароль?

  • Скуби-Ду! Тайна рестлмании / Scooby-Doo! WrestleMania Mystery (Брэндон Виетти / Brandon Vietti) [2014, Мультипликация, WEB-DL 1080p] VO + Rus Sub

    Ответить на тему
     
    Автор Сообщение

    Columb

    Создавать темы 18-Мар-2014 16:26

           

    [Цитировать]

    Скуби-Ду! Тайна рестлмании / Scooby-Doo! WrestleMania Mystery
    Страна: США
    Жанр: Мультипликация
    Продолжительность: 01:23:38
    Год выпуска: 2014
    Перевод: Любительский (одноголосый закадровый) [Hronos]
    Русские субтитры: есть-Режиссёр: Брэндон Виетти / Brandon Vietti
    Роли озвучивали: Мэттью Лиллард, Джон Ди Маджио, Грэй ДеЛисл, Фрэнк Уэлкер, Пол Левески, Трэвис Уиллингэм, Глен Джейкобс, Майк Мизанин, Минди Кон, Винс МакМахон-Описание: Новый искрометный мультфильм «Скуби-Ду – Тайна рестлмании» опять готов порадовать своих преданных зрителей. Чем же так уникален очередной захватывающий эпизод мультфильма про очаровательную собаку Скуби-Ду? А тем, что именно в этой части Вас ждут очень увлекательные путешествия наших главных героев в логово рестлмании. Что же такое Рестмалния – это театральные бои на ринге, когда бойцы изображают драку, хотя на самом деле – это лишь одна большая постановка, в этих схватках почти нет ничего опасного. Будут ли они сами участвовать в постановочных боях или же все будет намного серьезнее? Как и все остальные части, эта не стала исключением, и все также приковывает своих зрителей к экранам. Конечно, этот мультфильм наиболее понравится тем, кто постоянно следит за Скуби-Ду и за тем, куда он постоянно попадает. В этом эпизоде будет много острых шуток и комичных ситуаций, в которые герои попадают почти каждую минуту. И поверьте – ваши ожидания себя обязательно оправдают, разве может кому-то не понравится очаровательный Скуби-Ду?-Семпл: Забираем тут
    Качество: WEB-DL
    Формат: MKV
    Видео: AVC, 1916x1076 (16:9), 23.976 fps, 4 834 Kbps (0.098 bit/pixel)
    Аудио 1: AC-3, 48.0 KHz, 2 ch, 192 Kbps, CBR (Russian)
    Аудио 2: AC-3, 48.0 KHz, 6 ch, 384 Kbps, CBR (English)
    Субтитры: Russian, English

    Подробные технические данные

    ОбщееУникальный идентификатор : 208250797166350895135706755088898193072 (0x9CABA505D9AE741181A1F0F2A615F6B0)Полное имя : F:\Scooby Doo Wrestlemania Mystery 2014 1080p WEB-DL.mkvФормат : MatroskaВерсия формата : Version 4 / Version 2Размер файла : 3,23 ГбайтПродолжительность : 1 ч. 23 м.Общий поток : 5523 Кбит/секДата кодирования : UTC 2014-03-18 05:32:27Программа кодирования : mkvmerge v6.7.0 ('Back to the Ground') 32bit built on Jan 8 2014 15:03:17Библиотека кодирования : libebml v1.3.0 + libmatroska v1.4.1
    ВидеоИдентификатор : 1Формат : AVCФормат/Информация : Advanced Video CodecПрофиль формата : High@L4.0Параметр CABAC формата : ДаПараметр ReFrames формата : 4 кадраИдентификатор кодека : V_MPEG4/ISO/AVCПродолжительность : 1 ч. 23 м.Битрейт : 4837 Кбит/секШирина : 1916 пикселейВысота : 1076 пикселейСоотношение сторон : 16:9Режим частоты кадров : ПостоянныйЧастота кадров : 23,976 кадра/секЦветовое пространство : YUVСубдискретизация насыщенности : 4:2:0Битовая глубина : 8 битТип развёртки : ПрогрессивнаяБит/(Пиксели*Кадры) : 0.098Размер потока : 2,83 Гбайт (88%)Язык : EnglishDefault : ДаForced : НетОсновные цвета : BT.709Характеристики трансфера : BT.709Коэффициенты матрицы : BT.709
    Аудио #1Идентификатор : 2Формат : AC-3Формат/Информация : Audio Coding 3Расширение режима : CM (complete main)Параметр Endianness формата : BigИдентификатор кодека : A_AC3Продолжительность : 1 ч. 23 м.Вид битрейта : ПостоянныйБитрейт : 192 Кбит/секКаналы : 2 каналаРасположение каналов : Front: L RЧастота : 48,0 КГцБитовая глубина : 16 битМетод сжатия : С потерямиРазмер потока : 115 Мбайт (3%)Язык : RussianDefault : ДаForced : Нет
    Аудио #2Идентификатор : 3Формат : AC-3Формат/Информация : Audio Coding 3Расширение режима : CM (complete main)Параметр Endianness формата : BigИдентификатор кодека : A_AC3Продолжительность : 1 ч. 23 м.Вид битрейта : ПостоянныйБитрейт : 384 Кбит/секКаналы : 6 каналовРасположение каналов : Front: L C R, Side: L R, LFEЧастота : 48,0 КГцБитовая глубина : 16 битМетод сжатия : С потерямиРазмер потока : 230 Мбайт (7%)Язык : EnglishDefault : НетForced : Нет
    Текст #1Идентификатор : 4Формат : UTF-8Идентификатор кодека : S_TEXT/UTF8Идентификатор кодека/Информация : UTF-8 Plain TextЯзык : RussianDefault : НетForced : Нет
    Текст #2Идентификатор : 5Формат : UTF-8Идентификатор кодека : S_TEXT/UTF8Идентификатор кодека/Информация : UTF-8 Plain TextЯзык : EnglishDefault : НетForced : Нет
    Меню00:00:00.000 : en:1.00:09:58.000 : en:2.00:19:35.000 : en:3.00:29:48.000 : en:4.00:39:53.000 : en:5.00:49:27.000 : en:6.00:59:56.000 : en:7.01:08:27.000 : en:8.01:20:50.000 : en:9.

    Скриншоты

    Скачать .torrent

    Скачать торрент-файл бесплатно и на максимальной скорости!

    Как скачивать? · Что такое торрент? · Рейтинг и ограничения

    !ВНИМАНИЕ!
    Сайт не распространяет и не хранит электронные версии произведений, а занимается лишь лишь предоставлением доступа к создаваемому пользователями каталогу ссылок на торрент-файлы, которые содержат только списки хеш-сумм, убедительная просьба с жалобами обращаться напрямую к пользователю. Файлы для обмена на трекере предоставлены пользователями сайта, и администрация не несёт ответственности за их содержание. Просьба не заливать файлы, защищенные авторскими правами, а также файлы нелегального содержания!

    [Профиль] [ЛС]
    Показать сообщения:    
    Ответить на тему

    Текущее время: Сегодня, в 16:40

    Часовой пояс: GMT + 2



    Вы не можете начинать темы
    Вы не можете отвечать на сообщения
    Вы не можете редактировать свои сообщения
    Вы не можете удалять свои сообщения
    Вы не можете голосовать в опросах
    Вы не можете прикреплять файлы к сообщениям
    Вы не можете скачивать файлы