BitTorrentTracker PerecTracker.org
BitTorrentTracker PerecTracker.org
    
Регистрация  ·  Вход
 
 · 
Забыли пароль?

  • Книга джунглей / The Jungle Book (Джон Фавро / Jon Favreau) [2016, Великобритания, Фэнтези, драма, приключения, семейный, HDRip] Dub (iTunes)

    Ответить на тему
     
    Автор Сообщение

    rechyn

    Создавать темы 12-Авг-2016 13:15

           

    [Цитировать]

    Книга джунглей / The Jungle Book
    Страна: Великобритания, США
    Жанр: фэнтези, драма, приключения, семейный
    Год выпуска: 2016
    Продолжительность: 01:45:54
    Перевод: Профессиональный (дублированный) iTunes
    Cубтитры: Русские форсированные (скачать отдельно)
    Режиссер: Джон Фавро / Jon Favreau
    В ролях: Нил Сети, Билл Мюррэй, Бен Кингсли, Идрис Эльба, Лупита Нионго, Скарлетт Йоханссон, Джанкарло Эспозито, Кристофер Уокен, Гарри Шендлинг, Брайтон Роуз, Эмджей Энтони, Макс Фавро, Хлоя Хехтер, Эшер Блинкофф, Нокс Ганьон, Саша Шрайбер, Кай Шрайбер, Джон Фавро, Сэм Рэйми, Расселл Питерс
    Описание: Эта удивительная история повествует о маленьком мальчике, которого вырастили в глухом лесу говорящие животные. Он воспитывался в волчьей стае и постигал законы джунглей под присмотром мудрой пантеры Багиры. Однако, всевозрастающая угроза со стороны тигра Шерхана вынуждает его покинуть родной дом и отправиться в ближайшую деревню к людям. Ему предстоит пройти длинный путь к познанию своего прошлого, преисполненный опасными приключениями и захватывающими встречами с медведем Балу, питоном Каа, обезьяним королем Луи и другими лесными жителями.
    Релиз от Megapeer

    Качество видео: HDRip
    Формат видео: AVI
    Видео: 624x336 (1.86:1), 23.976 fps, XviD build 73 ~850 kbps avg, 0.17 bit/pixel
    Аудио: 48 kHz, MPEG Layer 3, 2 ch, ~128.00 kbps avg

    MediaInfo

    ОбщееПолное имя : D:\The.Jungle.Book.2016.HDRip.745MB.MegaPeer.aviФормат : AVIФормат/Информация : Audio Video InterleaveРазмер файла : 745 МбайтПродолжительность : 1 ч. 45 м.Общий поток : 983 Кбит/сек
    ВидеоИдентификатор : 0Формат : MPEG-4 VisualПрофиль формата : Advanced Simple@L5Параметр BVOP формата : 1Параметр QPel формата : НетПараметр GMC формата : Без точки переходаПараметр матрицы формата : ВыборочнаяИдентификатор кодека : XVIDИдентификатор кодека/Подсказка : XviDПродолжительность : 1 ч. 45 м.Битрейт : 850 Кбит/секШирина : 624 пикселяВысота : 336 пикселейСоотношение сторон : 1,85:1Частота кадров : 23,976 (24000/1001) кадра/секЦветовое пространство : YUVСубдискретизация насыщенности : 4:2:0Битовая глубина : 8 битТип развёртки : ПрогрессивнаяМетод сжатия : С потерямиБит/(Пиксели*Кадры) : 0.169Размер потока : 644 Мбайт (86%)Библиотека кодирования : XviD 73
    АудиоИдентификатор : 1Формат : MPEG AudioВерсия формата : Version 1Профиль формата : Layer 3Режим : Joint stereoРасширение режима : MS StereoИдентификатор кодека : 55Идентификатор кодека/Подсказка : MP3Продолжительность : 1 ч. 45 м.Вид битрейта : ПостоянныйБитрейт : 128 Кбит/секКаналы : 2 каналаЧастота : 48,0 КГцМетод сжатия : С потерямиРазмер потока : 97,0 Мбайт (13%)Выравнивание : Соединение по промежуткамПродолжительность промежутка : 167 мс. (4,00 видеокадра)Время предзагрузки промежутка : 216 мс.Заголовок : iTunesБиблиотека кодирования : LAME3.99rНастройки программы : -m j -V 4 -q 2 -lowpass 17 -b 128

    Скриншоты

    Скачать .torrent

    Скачать торрент-файл бесплатно и на максимальной скорости!

    Как скачивать? · Что такое торрент? · Рейтинг и ограничения

    !ВНИМАНИЕ!
    Сайт не распространяет и не хранит электронные версии произведений, а занимается лишь лишь предоставлением доступа к создаваемому пользователями каталогу ссылок на торрент-файлы, которые содержат только списки хеш-сумм, убедительная просьба с жалобами обращаться напрямую к пользователю. Файлы для обмена на трекере предоставлены пользователями сайта, и администрация не несёт ответственности за их содержание. Просьба не заливать файлы, защищенные авторскими правами, а также файлы нелегального содержания!


    _________________
    [Профиль] [ЛС]
    Показать сообщения:    
    Ответить на тему

    Текущее время: Сегодня, в 06:01

    Часовой пояс: GMT + 2



    Вы не можете начинать темы
    Вы не можете отвечать на сообщения
    Вы не можете редактировать свои сообщения
    Вы не можете удалять свои сообщения
    Вы не можете голосовать в опросах
    Вы не можете прикреплять файлы к сообщениям
    Вы не можете скачивать файлы