BitTorrentTracker PerecTracker.org
BitTorrentTracker PerecTracker.org
    
Регистрация  ·  Вход
 
 · 
Забыли пароль?

  • Лазерная команда / Lazer Team (Matt Hullum / Matt Hullum) [2015, США, фантастика, боевик, комедия, DVDRip] DVO (Parovoz Production) + Original Eng

    Ответить на тему
     
    Автор Сообщение

    Light

    Создавать темы 12-Авг-2016 13:15

           

    [Цитировать]

    Лазерная команда / Lazer Team

    Слоган: «Mankind's darkest hour needs our brightest team»
    Страна: США
    Студия: Rooster Teeth Productions
    Жанр: фантастика, боевик, комедия
    Год выпуска: 2015
    Продолжительность: 01:42:24
    Перевод: Любительский (двухголосый закадровый) - Parovoz Production
    Cубтитры:русские(forced)
    Оригинальная аудиодорожка: английский
    Режиссер: Matt Hullum / Matt Hullum
    В ролях: Бёрни Бёрнс, Гэвин Фри, Майкл Джонс, Колтон Данн, Александрия ДеБерри, Алан Ричсон, Стив Ширер, Кирк С. Джонсон, Benjamin Scott, Джонни Уолтер ...
    Описание: Из космоса поступает сообщение, тщательно закодированное. Сигнал гласит, что планете Земля угрожает опасность. Скоро на её поверхность прибудут пришельцы, и они явно не настроены дружелюбно по отношению к людям. По стечению обстоятельств, компания из 4 очень разных друзей станет свидетелями крушения космического корабля. На борту ребята находят части специального снаряжения. Каждый из героев с нетерпением примеряет на себя загадочные объекты. Так парни становятся обладателями особых приспособлений в виде шлема, специальной рукоятки, лазерного протектора для кисти и конечно одной пары «обуви».
    Разобрав удивительное добро и поделив между собой, молодые люди не думали, что привлекут внимание правительства. Теперь им предстоит сверхсложная задача совершить контакт с инопланетной расой и нанести ответный удар в случае нападения. Тренировать всю компанию принимается Адам — настоящий профессионал военного дела. Он должен наставить недалёких обладателей космического снаряжения на путь защиты страны, научив особенностям пользования «инопланетными вещами». По мере тренировок ребята ощущают сплочение, и узнают больше о свойствах того снаряжения, что они раздобыли на корабле.
    -
    ---Семпл--Качество видео: DVDRip
    Формат видео: AVI
    Видео: 720x304 (2.37:1), 23.976 fps, XviD build 67 ~1844 kbps avg, 0.35 bit/pixel
    Аудио 1: 48 kHz, AC3 Dolby Digital, 2/0 (L,R) ch, ~192 kbps, Русский
    Аудио 2: 48 kHz, AC3 Dolby Digital, 3/2 (L,C,R,l,r) + LFE ch, ~448 kbps, Английский - [Отдельно]
    Формат субтитров: softsub (SRT)

    AviInfo

    File: Lazer Team (2015)_DVDRip_.avi
    Title: Lazer Team (2015)
    Author: Matt Hullum
    Copyleft: Ripped_by_rjhlb777
    Genre: Action, Comedy, Sci-Fi
    Category: Movie
    Comment: DVO (Parovoz Production)
    FileSize: 1498.69 Mb ( 1 571 491 840 bytes )
    Play length: 01:42:24.186 (147313 frames)
    Subtitles: RUS_(Forced)_ (SubRip format)
    Video: 720x304 (2.37:1), 23.976 fps, XviD build 67 ~1844 kbps avg, 0.35 bit/pixel
    Audio: 48 kHz, AC3 Dolby Digital, 2/0 (L,R) ch, ~192 kbps

    MediaInfo

    General
    Complete name : C:\Temp\_RELEASES_\Lazer Team (2015)_DVDRip_\Lazer Team (2015)_DVDRip_.avi
    Format : AVI
    Format/Info : Audio Video Interleave
    File size : 1.46 GiB
    Duration : 1 h 42 min
    Overall bit rate : 2 046 kb/s
    Movie name : Lazer Team (2015)
    Director : Matt Hullum
    Genre : Action, Comedy, Sci-Fi
    Writing application : VirtualDubMod 1.5.10.3 | www.virtualdub-fr.org || (build 2550/release)
    Original source form/Name : Movie
    Copyright : Ripped_by_rjhlb777
    Comment : DVO (Parovoz Production)
    Video
    ID : 0
    Format : MPEG-4 Visual
    Format profile : Advanced Simple@L5
    Format settings, BVOP : 1
    Format settings, QPel : No
    Format settings, GMC : No warppoints
    Format settings, Matrix : Default (MPEG)
    Codec ID : XVID
    Codec ID/Hint : XviD
    Duration : 1 h 42 min
    Bit rate : 1 845 kb/s
    Width : 720 pixels
    Height : 304 pixels
    Display aspect ratio : 2.35:1
    Frame rate : 23.976 (24000/1001) FPS
    Color space : YUV
    Chroma subsampling : 4:2:0
    Bit depth : 8 bits
    Scan type : Progressive
    Compression mode : Lossy
    Bits/(Pixel*Frame) : 0.352
    Stream size : 1.32 GiB (90%)
    Writing library : XviD 67
    Audio
    ID : 1
    Format : AC-3
    Format/Info : Audio Coding 3
    Mode extension : CM (complete main)
    Format settings, Endianness : Big
    Codec ID : 2000
    Duration : 1 h 42 min
    Bit rate mode : Constant
    Bit rate : 192 kb/s
    Channel(s) : 2 channels
    Channel positions : Front: L R
    Sampling rate : 48.0 kHz
    Frame rate : 31.250 FPS (1536 spf)
    Compression mode : Lossy
    Stream size : 141 MiB (9%)
    Alignment : Split accross interleaves
    Interleave, duration : 42 ms (1.00 video frame)
    Interleave, preload duratio : 500 ms

    Скриншоты




    Скачать .torrent

    Скачать торрент-файл бесплатно и на максимальной скорости!

    Как скачивать? · Что такое торрент? · Рейтинг и ограничения

    !ВНИМАНИЕ!
    Сайт не распространяет и не хранит электронные версии произведений, а занимается лишь лишь предоставлением доступа к создаваемому пользователями каталогу ссылок на торрент-файлы, которые содержат только списки хеш-сумм, убедительная просьба с жалобами обращаться напрямую к пользователю. Файлы для обмена на трекере предоставлены пользователями сайта, и администрация не несёт ответственности за их содержание. Просьба не заливать файлы, защищенные авторскими правами, а также файлы нелегального содержания!


    _________________
    [Профиль] [ЛС]
    Показать сообщения:    
    Ответить на тему

    Текущее время: Сегодня, в 03:04

    Часовой пояс: GMT + 2



    Вы не можете начинать темы
    Вы не можете отвечать на сообщения
    Вы не можете редактировать свои сообщения
    Вы не можете удалять свои сообщения
    Вы не можете голосовать в опросах
    Вы не можете прикреплять файлы к сообщениям
    Вы не можете скачивать файлы