BitTorrentTracker PerecTracker.org
BitTorrentTracker PerecTracker.org
    
Регистрация  ·  Вход
 
 · 
Забыли пароль?

  • [ATV3] Книга джунглей / The Jungle Book (Джон Фавро / Jon Favreau ) [2016, Великобритания, США , Фэнтези, драма, приключения, семейный, BDRip, HD (1080p)] DUB + Original + sub (rus, eng)

    Ответить на тему
     
    Автор Сообщение

    rechyn

    Создавать темы 12-Авг-2016 04:51

           

    [Цитировать]

    Книга джунглей / The Jungle Book
    «The legend will never be the same»
    7.383 / 10 7.80 / 10
    -Год выпуска: 2016
    Страна: Великобритания, США
    Жанр: Фэнтези, драма, приключения, семейный
    Продолжительность: 01:45:54
    Перевод: Дублированный (iTunes)
    Оригинальная аудиодорожка: Есть
    Cубтитры: Русские форсированные, Русские, Английские
    Режиссёр: Джон Фавро
    Сценарий: Джастин Маркс, Редьярд Киплинг
    Продюсер: Джон Фавро, Бригхэм Тейлор, Молли Аллен
    Оператор: Билл Поуп
    Композитор: Джон Дебни
    Художник: Кристофер Гласс, Рави Бансал, Джон Лорд Бут III
    Монтаж: Адам Герстл, Марк Ливолси
    В ролях: Нил Сетхи, Билл Мюррей, Бен Кингсли, Идрис Эльба, Лупита Нионго, Скарлетт Йоханссон, Джанкарло Эспозито, Кристофер Уокен, Гарри Шендлинг, Брайтон Роуз
    Бюджет: $175 000 000
    Сборы в США: $362 719 352
    Сборы в мире: + $578 554 542 = $941 273 894
    Сборы в России: $21 269 808
    Мировая премьера: 4 апреля 2016
    Премьера (РФ): 7 апреля 2016, «WDSSPR»
    Релиз на DVD: 30 августа 2016, «Уолт Дисней Компани СНГ»
    Релиз на Blu-Ray: 30 августа 2016, «Уолт Дисней Компани СНГ»
    Описание: Непримиримая борьба с опасным и страшным тигром Шерханом вынуждает Маугли покинуть волчью стаю и отправиться в деревню к людям. На пути мальчика ждут удивительные открытия и захватывающие приключения с пантерой Багирой, медведем Балу, питоном Каа и другими обитателями дремучих джунглей.-Качество исходника: BDRemux (HDClub)
    Качество: BDRip
    Тип: HD (1080p)
    Контейнер: M4V
    Видео: H.264, 1920x1040, 1.85:1, 8 000 Kbps, 23.976 fps
    Аудио 1: Русский/Дублированный (iTunes), AAC / 2.0 / 160 Kbps / 48.0 KHz
    Аудио 2: Английский/Оригинальная дорожка , AAC / 2.0 / 160 Kbps / 48.0 KHz
    Аудио 3: Украинский/Дублированный (Disney / Buena Vista), AAC / 2.0 / 160 Kbps / 48.0 KHz
    Аудио 4: Русский/Дублированный (iTunes), AC-3 / 5.1 / 384 Kbps / 48.0 KHz
    Аудио 5: Английский/Оригинальная дорожка , AC-3 / 5.1 / 640 Kbps / 48.0 KHz
    Аудио 6: Украинский/Дублированный (Disney / Buena Vista), AC-3 / 5.1 / 640 Kbps / 48.0 KHz
    Субтитры 1: Русские форсированные
    Субтитры 2: Русские полные
    Субтитры 3: Английские полные
    -

    iTunes Meta Tags

    Sort Name: Jungle Book
    XID: Apple:vendor_id:2016-779024
    contentID: 1099361947
    Copyright: © 2016 Disney Enterprises, Inc. All Rights Reserved
    Screenwriters: Джастин Маркс, Редьярд Киплинг
    Producers: Джон Фавро, Бригхэм Тейлор, Молли Аллен
    Director: Джон Фавро
    Cast: Скарлетт Йоханссон, Идрис Эльба, Билл Мюррей, Лупита Нионго, Кристофер Уокен, Джанкарло Эспозито, Нил Сетхи, Бен Кингсли, Ралф Айнесон, Ханна Тойнтон, Татьяна Шитова
    Studio: Walt Disney Pictures
    Rating: 122
    Long Description: Непримиримая борьба с опасным и внушающим страх тигром Шерханом вынуждает Маугли покинуть волчью стаю и отправиться в захватывающее путешествие. На пути мальчика ждут удивительные открытия и запоминающиеся встречи с пантерой Багирой, медведем Балу, питоном Каа и другими обитателями дремучих джунглей.
    Description: Непримиримая борьба с опасным и внушающим страх тигром Шерханом вынуждает Маугли покинуть волчью стаю и отправиться в захватывающее путешествие. На пути мальчика ждут удивительные открытия и запоминающиеся встречи с пантерой Багирой, медведем Балу, питоном Каа и другими обитателями дремучих джунглей.
    Release Date: 2016-04-07T08:00:00Z
    Genre: Drama
    Artist: Jon Favreau
    Name: The Jungle Book (2016)

    MediaInfo

    General
    Complete name : /Users/imac/HandBrake/The Jungle Book (2016) (1080p HD).m4v
    Format : MPEG-4
    Codec ID : M4V
    File size : 7.51 GiB
    Duration : 1h 46mn
    Overall bit rate mode : Variable
    Overall bit rate : 10.1 Mbps
    Movie name : The Jungle Book (2016)
    Performer : Jon Favreau
    Director : Джон Фавро
    Actor : Скарлетт Йоханссон / Идрис Эльба / Билл Мюррей / Лупита Нионго / Кристофер Уокен / Джанкарло Эспозито / Нил Сетхи / Бен Кингсли / Ралф Айнесон / Ханна Тойнтон / Татьяна Шитова
    Screenplay by : Джастин Маркс / Редьярд Киплинг
    Producer : Джон Фавро / Бригхэм Тейлор / Молли Аллен
    Production studio : Walt Disney Pictures
    Genre : Drama
    ContentType : Short Film
    Description : Непримиримая борьба с опасным и внушающим страх тигром Шерханом вынуждает Маугли покинуть волчью стаю и отправиться в захватывающее путешествие. На пути мальчика ждут удивительные открытия и запоминающиеся встречи с пантерой Багирой, медведем Балу, питоном Каа и другими обитателями дремучих джунглей.
    Recorded date : UTC 2016-04-07 08:00:00
    Encoded date : UTC 2016-08-11 17:55:30
    Tagged date : UTC 2016-08-11 18:02:05
    Copyright : © 2016 Disney Enterprises, Inc. All Rights Reserved
    Cover : Yes
    Rating : None
    Title/Sort : Jungle Book
    LongDescription : Непримиримая борьба с опасным и внушающим страх тигром Шерханом вынуждает Маугли покинуть волчью стаю и отправиться в захватывающее путешествие. На пути мальчика ждут удивительные открытия и запоминающиеся встречи с пантерой Багирой, медведем Балу, питоном Каа и другими обитателями дремучих джунглей.
    AppleStoreCatalogID : 1099361947
    Vendor : Apple:vendor_id:2016-779024
    ContentRating : uk-movie|PG|200|
    Video #1
    ID : 1
    Format : AVC
    Format/Info : Advanced Video Codec
    Format profile : High@L4
    Format settings, CABAC : Yes
    Format settings, ReFrames : 4 frames
    Codec ID : avc1
    Codec ID/Info : Advanced Video Coding
    Duration : 1h 45mn
    Source duration : 1h 45mn
    Bit rate : 8 000 Kbps
    Width : 1 920 pixels
    Height : 1 040 pixels
    Display aspect ratio : 1.85:1
    Frame rate mode : Variable
    Frame rate : 23.976 fps
    Minimum frame rate : 23.974 fps
    Maximum frame rate : 23.981 fps
    Color space : YUV
    Chroma subsampling : 4:2:0
    Bit depth : 8 bits
    Scan type : Progressive
    Bits/(Pixel*Frame) : 0.167
    Stream size : 5.92 GiB (79%)
    Source stream size : 5.92 GiB (79%)
    Title : Main Program
    Writing library : x264 core 142 r2479 dd79a61
    Encoding settings : cabac=1 / ref=4 / deblock=1:-2:-2 / analyse=0x3:0x133 / me=umh / subme=10 / psy=1 / psy_rd=1.00:0.15 / mixed_ref=1 / me_range=32 / chroma_me=1 / trellis=2 / 8x8dct=1 / cqm=0 / deadzone=21,11 / fast_pskip=0 / chroma_qp_offset=-3 / threads=36 / lookahead_threads=8 / sliced_threads=0 / nr=0 / decimate=0 / interlaced=0 / bluray_compat=0 / constrained_intra=0 / bframes=16 / b_pyramid=2 / b_adapt=2 / b_bias=0 / direct=3 / weightb=1 / open_gop=0 / weightp=2 / keyint=240 / keyint_min=24 / scenecut=40 / intra_refresh=0 / rc_lookahead=60 / rc=2pass / mbtree=1 / bitrate=8000 / ratetol=1.0 / qcomp=0.70 / qpmin=0 / qpmax=69 / qpstep=4 / cplxblur=20.0 / qblur=0.5 / vbv_maxrate=25000 / vbv_bufsize=25000 / nal_hrd=none / filler=0 / ip_ratio=1.40 / aq=1:1.00
    Language : English
    Encoded date : UTC 2016-08-11 17:55:30
    Tagged date : UTC 2016-08-11 17:55:41
    Color range : Limited
    Color primaries : BT.709
    Transfer characteristics : BT.709
    Matrix coefficients : BT.709
    Video #2
    ID : 12
    Format : JPEG
    Codec ID : jpeg
    Duration : 1h 45mn
    Bit rate mode : Variable
    Bit rate : 1 251 bps
    Width : 640 pixels
    Height : 346 pixels
    Display aspect ratio : 1.85:1
    Frame rate mode : Variable
    Frame rate : 0.003 fps
    Minimum frame rate : 0.002 fps
    Maximum frame rate : 0.021 fps
    Color space : YUV
    Chroma subsampling : 4:2:0
    Bit depth : 8 bits
    Compression mode : Lossy
    Bits/(Pixel*Frame) : 1.883
    Stream size : 1 018 KiB (0%)
    Title : Chapter Images
    Language : English
    Encoded date : UTC 2016-08-11 17:55:54
    Tagged date : UTC 2016-08-11 17:55:55
    Audio #1
    ID : 2
    Format : AAC
    Format/Info : Advanced Audio Codec
    Format profile : LC
    Codec ID : 40
    Duration : 1h 46mn
    Bit rate mode : Variable
    Bit rate : 157 Kbps
    Maximum bit rate : 234 Kbps
    Channel(s) : 2 channels
    Channel positions : Front: L R
    Sampling rate : 48.0 KHz
    Compression mode : Lossy
    Stream size : 119 MiB (2%)
    Title : Russian Stereo
    Language : Russian
    Encoded date : UTC 2016-08-11 17:55:30
    Tagged date : UTC 2016-08-11 17:55:45
    Audio #2
    ID : 3
    Format : AAC
    Format/Info : Advanced Audio Codec
    Format profile : LC
    Codec ID : 40
    Duration : 1h 45mn
    Bit rate mode : Variable
    Bit rate : 158 Kbps
    Maximum bit rate : 255 Kbps
    Channel(s) : 2 channels
    Channel positions : Front: L R
    Sampling rate : 48.0 KHz
    Compression mode : Lossy
    Stream size : 120 MiB (2%)
    Title : English Stereo
    Language : English
    Encoded date : UTC 2016-08-11 17:55:30
    Tagged date : UTC 2016-08-11 17:55:45
    Audio #3
    ID : 4
    Format : AAC
    Format/Info : Advanced Audio Codec
    Format profile : LC
    Codec ID : 40
    Duration : 1h 45mn
    Bit rate mode : Variable
    Bit rate : 159 Kbps
    Maximum bit rate : 239 Kbps
    Channel(s) : 2 channels
    Channel positions : Front: L R
    Sampling rate : 48.0 KHz
    Compression mode : Lossy
    Stream size : 120 MiB (2%)
    Title : Ukrainian Stereo
    Language : Ukrainian
    Encoded date : UTC 2016-08-11 17:55:30
    Tagged date : UTC 2016-08-11 17:55:45
    Audio #4
    ID : 5
    Format : AC-3
    Format/Info : Audio Coding 3
    Mode extension : CM (complete main)
    Format settings, Endianness : Big
    Codec ID : ac-3
    Duration : 1h 46mn
    Bit rate mode : Constant
    Bit rate : 384 Kbps
    Channel(s) : 6 channels
    Channel positions : Front: L C R, Side: L R, LFE
    Sampling rate : 48.0 KHz
    Bit depth : 16 bits
    Compression mode : Lossy
    Stream size : 292 MiB (4%)
    Title : Russian DD 5.1
    Language : Russian
    Encoded date : UTC 2016-08-11 17:55:30
    Tagged date : UTC 2016-08-11 17:55:43
    Audio #5
    ID : 6
    Format : AC-3
    Format/Info : Audio Coding 3
    Mode extension : CM (complete main)
    Format settings, Endianness : Big
    Codec ID : ac-3
    Duration : 1h 45mn
    Bit rate mode : Constant
    Bit rate : 640 Kbps
    Channel(s) : 6 channels
    Channel positions : Front: L C R, Side: L R, LFE
    Sampling rate : 48.0 KHz
    Bit depth : 16 bits
    Compression mode : Lossy
    Stream size : 485 MiB (6%)
    Title : English DD 5.1
    Language : English
    Encoded date : UTC 2016-08-11 17:55:30
    Tagged date : UTC 2016-08-11 17:55:43
    Audio #6
    ID : 7
    Format : AC-3
    Format/Info : Audio Coding 3
    Mode extension : CM (complete main)
    Format settings, Endianness : Big
    Codec ID : ac-3
    Duration : 1h 45mn
    Bit rate mode : Constant
    Bit rate : 640 Kbps
    Channel(s) : 6 channels
    Channel positions : Front: L C R, Side: L R, LFE
    Sampling rate : 48.0 KHz
    Bit depth : 16 bits
    Compression mode : Lossy
    Stream size : 484 MiB (6%)
    Title : Ukrainian DD 5.1
    Language : Ukrainian
    Encoded date : UTC 2016-08-11 17:55:30
    Tagged date : UTC 2016-08-11 17:55:43
    Text #1
    ID : 8
    Format : Timed Text
    Muxing mode : sbtl
    Codec ID : tx3g
    Duration : 1h 45mn
    Bit rate mode : Variable
    Bit rate : 0 bps
    Stream size : 174 Bytes (0%)
    Title : Russian forced
    Language : Russian
    Encoded date : UTC 2016-08-11 17:55:30
    Tagged date : UTC 2016-08-11 17:55:30
    Text #2
    ID : 9
    Format : Timed Text
    Muxing mode : sbtl
    Codec ID : tx3g
    Duration : 1h 45mn
    Bit rate mode : Variable
    Bit rate : 65 bps
    Stream size : 50.5 KiB (0%)
    Title : Russian full
    Language : Russian
    Encoded date : UTC 2016-08-11 17:55:30
    Tagged date : UTC 2016-08-11 17:55:31
    Text #3
    ID : 10
    Format : Timed Text
    Muxing mode : sbtl
    Codec ID : tx3g
    Duration : 1h 45mn
    Bit rate mode : Variable
    Bit rate : 55 bps
    Stream size : 42.4 KiB (0%)
    Title : English full
    Language : English
    Encoded date : UTC 2016-08-11 17:55:30
    Tagged date : UTC 2016-08-11 17:55:31
    Menu #1
    00:00:00.000 : Chapter 1
    00:00:47.756 : Chapter 2
    00:05:15.398 : Chapter 3
    00:09:01.708 : Chapter 4
    00:12:42.261 : Chapter 5
    00:16:34.535 : Chapter 6
    00:21:19.320 : Chapter 7
    00:27:15.217 : Chapter 8
    00:35:04.227 : Chapter 9
    00:43:21.808 : Chapter 10
    00:48:05.216 : Chapter 11
    00:53:29.331 : Chapter 12
    00:58:03.355 : Chapter 13
    01:05:46.526 : Chapter 14
    01:10:35.606 : Chapter 15
    01:17:01.408 : Chapter 16
    01:20:49.011 : Chapter 17
    01:24:45.914 : Chapter 18
    01:30:33.053 : Chapter 19
    01:35:53.289 : Chapter 20
    Menu #2
    ID : 11
    Codec ID : text
    Duration : 1h 45mn
    Language : English
    Encoded date : UTC 2016-08-11 17:55:45
    Tagged date : UTC 2016-08-11 17:55:45
    00:00:00.000 : Chapter 1
    00:00:47.756 : Chapter 2
    00:05:15.398 : Chapter 3
    00:09:01.708 : Chapter 4
    00:12:42.261 : Chapter 5
    00:16:34.535 : Chapter 6
    00:21:19.320 : Chapter 7
    00:27:15.217 : Chapter 8
    00:35:04.227 : Chapter 9
    00:43:21.808 : Chapter 10
    00:48:05.216 : Chapter 11
    00:53:29.331 : Chapter 12
    00:58:03.355 : Chapter 13
    01:05:46.526 : Chapter 14
    01:10:35.606 : Chapter 15
    01:17:01.408 : Chapter 16
    01:20:49.011 : Chapter 17
    01:24:45.914 : Chapter 18
    01:30:33.053 : Chapter 19
    01:35:53.289 : Chapter 20
    Bit rate mode : VBR

    x264 лог

    x264 [info]: frame I:980   Avg QP:17.44  size:275590
    x264 [info]: frame P:41528 Avg QP:21.24  size: 80240
    x264 [info]: frame B:109851 Avg QP:22.94  size: 25038
    x264 [info]: consecutive B-frames:  5.4%  4.5% 17.1% 25.0% 13.4% 31.3%  2.1%  0.4%  0.1%  0.1%  0.1%  0.1%  0.0%  0.0%  0.0%  0.1%  0.3%
    x264 [info]: mb I  I16..4:  6.1% 82.1% 11.8%
    x264 [info]: mb P  I16..4:  2.0% 14.9%  1.2%  P16..4: 46.9% 15.8% 13.1%  0.5%  0.1%    skip: 5.5%
    x264 [info]: mb B  I16..4:  0.1%  1.8%  0.2%  B16..8: 38.2%  7.3%  1.8%  direct: 6.2%  skip:44.3%  L0:40.5% L1:46.5% BI:13.0%
    x264 [info]: 8x8 transform intra:82.6% inter:69.0%
    x264 [info]: direct mvs  spatial:95.7% temporal:4.3%
    x264 [info]: coded y,uvDC,uvAC intra: 83.5% 76.1% 44.6% inter: 24.7% 22.6% 9.4%
    x264 [info]: i16 v,h,dc,p: 28% 16% 11% 45%
    x264 [info]: i8 v,h,dc,ddl,ddr,vr,hd,vl,hu:  9% 11%  7%  9% 13% 12% 13% 12% 14%
    x264 [info]: i4 v,h,dc,ddl,ddr,vr,hd,vl,hu:  8%  9%  3%  9% 16% 14% 16% 11% 15%
    x264 [info]: i8c dc,h,v,p: 45% 24% 18% 13%
    x264 [info]: Weighted P-Frames: Y:2.5% UV:1.3%
    x264 [info]: ref P L0: 55.1% 13.1% 21.7%  7.9%  2.1%  0.0%
    x264 [info]: ref B L0: 86.3% 11.2%  2.5%
    x264 [info]: ref B L1: 93.3%  6.7%
    x264 [info]: kb/s:7997.66

    Скриншоты

    -

    Релиз подготовлен для просмотра на Apple TV, iPad, iPhone, iPod Touch.
    Для просмотра данного релиза на компьютере с ОС Windows рекомендуется использовать VLC media player
    Скачать .torrent

    Скачать торрент-файл бесплатно и на максимальной скорости!

    Как скачивать? · Что такое торрент? · Рейтинг и ограничения

    !ВНИМАНИЕ!
    Сайт не распространяет и не хранит электронные версии произведений, а занимается лишь лишь предоставлением доступа к создаваемому пользователями каталогу ссылок на торрент-файлы, которые содержат только списки хеш-сумм, убедительная просьба с жалобами обращаться напрямую к пользователю. Файлы для обмена на трекере предоставлены пользователями сайта, и администрация не несёт ответственности за их содержание. Просьба не заливать файлы, защищенные авторскими правами, а также файлы нелегального содержания!


    _________________
    [Профиль] [ЛС]
    Показать сообщения:    
    Ответить на тему

    Текущее время: Сегодня, в 10:41

    Часовой пояс: GMT + 2



    Вы не можете начинать темы
    Вы не можете отвечать на сообщения
    Вы не можете редактировать свои сообщения
    Вы не можете удалять свои сообщения
    Вы не можете голосовать в опросах
    Вы не можете прикреплять файлы к сообщениям
    Вы не можете скачивать файлы