BitTorrentTracker PerecTracker.org
BitTorrentTracker PerecTracker.org
    
Регистрация  ·  Вход
 
 · 
Забыли пароль?

  • Тёмная сторона Луны / Die dunkle Seite des Mondes / The Dark Side of the Moon (Штефан Рик / Stephan Rick) [2015, Германия, Люксембург, Триллер, BDRip] AVO (Живов) + MVO

    Ответить на тему
     
    Автор Сообщение

    Light

    Создавать темы 12-Авг-2016 00:42

           

    [Цитировать]

    Тёмная сторона Луны / Die dunkle Seite des Mondes / The Dark Side of the Moon
    Страна: Германия, Люксембург
    Студия: Port au Prince Film & Kultur Produktion, Iris Productions, Südwestrundfunk (SWR)
    Жанр: Триллер
    Год выпуска: 2015
    Продолжительность: 01:37:56
    Перевод 1: Авторский (одноголосый закадровый) Юрий Живов
    Перевод 2: Профессиональный (многоголосый закадровый) - ViruseProject
    Cубтитры: нет
    Оригинальная аудиодорожка: нет
    Режиссер: Штефан Рик / Stephan Rick
    В ролях: Мориц Бляйбтрой, Юрген Прохнов, Нора фон Вальдштеттен, Андре Хеннике, Сабина Россбах, Дорис Шретцмайер, Марко Лоренцини, Йен Т. Дикинсон, Люк Фейт, Ив Роберт Шааф
    Описание: Экранизация бестселлера швейцарского писателя Мартина Зутера. Урс Бланк - адвокат с блестящей репутацией. Ему сопутствует успех, а сфера деятельности стала для него родной стихией. В работе всё хорошо, в семье также проблем нет, но кое-что заставляет главного героя чувствовать себя напряжённо - один из его деловых партнёров застрелился во время проведения переговоров. Урс всё больше замыкается в себе, концентрируясь на данном событии. Как раз тогда он встречает миловидную девушку по имени Люсиль. Встреча эта повлечёт очень удивительные и опасные последствия - она демонстрирует ему возможности особого пространства - альтернативного мира, которые станут настоящим лекарством от поедающей его депрессии.
    Дополнительная информация:
    Автор релиза - ylnian
    Заказ перевода у Юрия Живова (июль 2016) - ylnian
    За сборку дороги спасибо rammzez
    Профессиональный многоголосый перевод от ViruseProject: Елена Емельянова, Дмитрий Кравченко, Владислав Данилов
    Источник для рипа - Blu-Ray (GER) - Die.dunkle.Seite.des.Mondes.2016.GERMAN.COMPLETE.BLURAY-GMB


    Сэмпл: https://yadi.sk/i/rW6cvT2fu6m3G
    Качество видео: BDRip
    Формат видео: AVI
    Видео: XviD, 720x304 (2,35:1), 24.000 fps, 1678 kbps, 0.320 bit/pixel
    Аудио 1: Русский AC3, 48000 Гц, 6ch, 448 kbps - AVO
    Аудио 2: Русский AC3, 48000 Гц, 2ch, 192 kbps - MVO - отдельным файлом

    MediaInfo

    Общее
    Полное имя : B:\Die.dunkle.Seite.des.Mondes.2015.BDRip-ylnian\Die.dunkle.Seite.des.Mondes.2015.BDRip-ylnian.avi
    Формат : AVI
    Формат/Информация : Audio Video Interleave
    Размер файла : 1,46 Гбайт
    Продолжительность : 1 ч. 37 м.
    Общий поток : 2136 Кбит/сек
    Программа кодирования : VirtualDubMod 1.5.10.2 (build 2540/release)
    Библиотека кодирования : VirtualDubMod build 2540/release
    Видео
    Идентификатор : 0
    Формат : MPEG-4 Visual
    Профиль формата : Advanced Simple@L5
    Параметр BVOP формата : 1
    Параметр QPel формата : Нет
    Параметр GMC формата : Без точки перехода
    Параметр матрицы формата : Default (MPEG)
    Идентификатор кодека : XVID
    Идентификатор кодека/Подсказка : XviD
    Продолжительность : 1 ч. 37 м.
    Битрейт : 1678 Кбит/сек
    Ширина : 720 пикселей
    Высота : 304 пикселя
    Соотношение сторон : 2,35:1
    Частота кадров : 24,000 кадра/сек
    Цветовое пространство : YUV
    Субдискретизация насыщенности : 4:2:0
    Битовая глубина : 8 бит
    Тип развёртки : Прогрессивная
    Метод сжатия : С потерями
    Бит/(Пиксели*Кадры) : 0.320
    Размер потока : 1,15 Гбайт (79%)
    Библиотека кодирования : XviD 67
    Аудио
    Идентификатор : 1
    Формат : AC-3
    Формат/Информация : Audio Coding 3
    Расширение режима : CM (complete main)
    Параметр Endianness формата : Big
    Идентификатор кодека : 2000
    Продолжительность : 1 ч. 37 м.
    Вид битрейта : Постоянный
    Битрейт : 448 Кбит/сек
    Каналы : 6 каналов
    Расположение каналов : Front: L C R, Side: L R, LFE
    Частота : 48,0 КГц
    Частота кадров : 31,250 кадров/сек (1536 spf)
    Метод сжатия : С потерями
    Размер потока : 314 Мбайт (21%)
    Выравнивание : Разделение по промежуткам
    Продолжительность промежутка : 42 мс. (1,00 видеокадр)
    Время предзагрузки промежутка : 500 мс.
    Заголовок : RUS - Jivov
    Общее
    Полное имя : B:\Die.dunkle.Seite.des.Mondes.2015.BDRip-ylnian\Die.dunkle.Seite.des.Mondes.2015.BDRip-ylnian_MVO.ac3
    Формат : AC-3
    Формат/Информация : Audio Coding 3
    Размер файла : 135 Мбайт
    Продолжительность : 1 ч. 37 м.
    Режим общего битрейта : Постоянный
    Общий поток : 192 Кбит/сек
    Аудио
    Формат : AC-3
    Формат/Информация : Audio Coding 3
    Расширение режима : CM (complete main)
    Параметр Endianness формата : Big
    Продолжительность : 1 ч. 37 м.
    Вид битрейта : Постоянный
    Битрейт : 192 Кбит/сек
    Каналы : 2 канала
    Расположение каналов : Front: L R
    Частота : 48,0 КГц
    Частота кадров : 31,250 кадров/сек (1536 spf)
    Метод сжатия : С потерями
    Размер потока : 135 Мбайт (100%)

    Скриншот c названием фильма

    Скриншоты

    Скачать .torrent

    Скачать торрент-файл бесплатно и на максимальной скорости!

    Как скачивать? · Что такое торрент? · Рейтинг и ограничения

    !ВНИМАНИЕ!
    Сайт не распространяет и не хранит электронные версии произведений, а занимается лишь лишь предоставлением доступа к создаваемому пользователями каталогу ссылок на торрент-файлы, которые содержат только списки хеш-сумм, убедительная просьба с жалобами обращаться напрямую к пользователю. Файлы для обмена на трекере предоставлены пользователями сайта, и администрация не несёт ответственности за их содержание. Просьба не заливать файлы, защищенные авторскими правами, а также файлы нелегального содержания!


    _________________
    [Профиль] [ЛС]
    Показать сообщения:    
    Ответить на тему

    Текущее время: Сегодня, в 12:40

    Часовой пояс: GMT + 2



    Вы не можете начинать темы
    Вы не можете отвечать на сообщения
    Вы не можете редактировать свои сообщения
    Вы не можете удалять свои сообщения
    Вы не можете голосовать в опросах
    Вы не можете прикреплять файлы к сообщениям
    Вы не можете скачивать файлы