BitTorrentTracker PerecTracker.org
BitTorrentTracker PerecTracker.org
    
Регистрация  ·  Вход
 
 · 
Забыли пароль?

  • В этом мире / Ici-bas / Here Below (Жан-Пьер Дени / Jean-Pierre Denis) [2011, Франция, драма, DVB] Original (Fre) + Sub (Rus, Eng, Fre, Deu)

    Ответить на тему
     
    Автор Сообщение

    Light

    Создавать темы 12-Авг-2016 00:42

           

    [Цитировать]

    В этом мире
    Ici-bas-Страна: Франция
    Жанр: драма
    Год выпуска: 2011
    Продолжительность: 01:35:24
    Перевод: Субтитры (перевод М.Лабори, Éclair Media)
    Cубтитры: русские, английские, французские, немецкие, нидерландские
    Оригинальная аудиодорожка: французский
    Режиссер: Жан-Пьер Дени / Jean-Pierre DenisВ ролях: Селин Саллетт / Celine Sallette (Soeur Luce), Эрик Каравака / Éric Caravaca (Martial), Франсуа Лорике / François Loriquet (Victor), Мод Райе / Maud Rayer (Mère supérieure), Жак Списсе / Jacques Spiesser (L'évêque)
    Описание: В основу фильма положены события времен Оккупации в Перигоре в 1944 г. Благочестивая монахиня, помогающая в качестве медсестры в городской больнице, встречает бойца маки, бывшего капелана, ставшего атеистом, и любовь к Христу в ее сознании заменяется любовью к этому человеку. Одержимая страстью, она покидает монастырь, за стенами которого сталкивается с грубой реальностью жизни...
    Доп. информация: Hot Bird (13.0°E) TV5MONDE Europe DVB-S
    Награды: номинация на лучший полнометражный исторический фильм Festival International du Film d'Histoire (Pessac) 2012; номинация на лучшего режиссера Festival de l'Audiovision Valentin Haüy 2012; фильм помещен в "Зал позора" Women Film Critics Circle Awards 2012 "за романтизацию насилия: изнасилованная монахиня влюбляется в своего насильника".

    Качество видео: DVB
    Формат видео: MKV
    Видео: MPEG Video 2, 720x576@1024x576 (16:9), 25 fps, ~2773 kbps avg, 0.267 bit/pixel
    Аудио: MPEG Audio 2, 2 ch, 48 kHz, 192 kbps - французский
    Формат субтитров: softsub (SRT)

    Пример субтитров

    100:00:18,764 --> 00:00:20,769В основу фильмаположены события
    200:00:20,769 --> 00:00:23,129времен Оккупациив Перигоре в 1944 г.
    300:00:23,129 --> 00:00:24,216Многие сцены
    400:00:24,216 --> 00:00:27,216являются вымышленными.
    500:00:34,170 --> 00:00:37,170Перигор, 1916 г.
    600:00:50,294 --> 00:00:53,294Тебя мама зовет. Это моя юла!
    700:00:53,726 --> 00:00:56,726Отдай.
    800:00:57,483 --> 00:01:00,483Она нужна мне!
    900:01:09,417 --> 00:01:12,417-Осторожно, малышка.-Святой отец!
    1000:01:15,808 --> 00:01:17,809-3наю, что ты хочешь.-Картинку.
    1100:01:17,809 --> 00:01:20,809Выбирай.
    1200:01:22,285 --> 00:01:25,285Святая Люсия.
    1300:01:25,568 --> 00:01:27,655-Нравится?-Да.
    1400:01:27,655 --> 00:01:30,655В ЭТОМ МИРЕ
    1500:01:35,124 --> 00:01:38,019У меня хорошиеновости с фронта.
    1600:01:38,019 --> 00:01:40,774Генерал Филипп Петен
    1700:01:40,774 --> 00:01:42,529спас Францию.
    1800:01:42,529 --> 00:01:45,529Боже, сделай так,чтобы ваш папа скоро вернулся.
    1900:01:58,047 --> 00:02:01,047Перигор, 1943 г.
    2000:02:04,564 --> 00:02:07,208Террористы напалина нас в Ниверсаке.

    MediaInfo

    GeneralUnique ID : 207323234472025243761006397511909297027 (0x9BF900A6B404D306AC21308CB3F0CB83)Complete name : [apreder]Ici-bas(2011)DVB.mkvFormat : MatroskaFormat version : Version 2File size : 2.02 GiBDuration : 1 h 35 minOverall bit rate : 3 025 kb/sMovie name : Ici-basReleased date : 2012-01-18Encoded date : UTC 2016-08-10 15:35:59Writing application : mkvmerge v9.3.1 ('Mask Machine') 64bitWriting library : libebml v1.3.4 + libmatroska v1.4.5Cover : YesAttachments : cover.jpg / smal_cover.jpgACTOR : Cйline Sallette, Йric Caravaca, Franзois LoriquetDIRECTOR : Jean-Pierre DenisGENRE : DramaIMDB : tt1825811KEYWORDS : perectracker.orgLAW_RATING : 16+
    VideoID : 1Format : MPEG VideoFormat version : Version 2Format profile : Main@MainFormat settings, BVOP : YesFormat settings, Matrix : CustomFormat settings, GOP : M=4, N=12Format settings, picture structure : FrameCodec ID : V_MPEG2Codec ID/Info : MPEG 1 or 2 VideoDuration : 1 h 35 minBit rate : 2 773 kb/sMaximum bit rate : 3 200 kb/sWidth : 720 pixelsHeight : 576 pixelsDisplay aspect ratio : 16:9Frame rate mode : ConstantFrame rate : 25.000 FPSStandard : PALColor space : YUVChroma subsampling : 4:2:0Bit depth : 8 bitsScan type : InterlacedScan order : Top Field FirstCompression mode : LossyBits/(Pixel*Frame) : 0.267Stream size : 1.85 GiB (92%)Default : YesForced : No
    AudioID : 2Format : MPEG AudioFormat version : Version 1Format profile : Layer 2Mode : Joint stereoMode extension : Intensity Stereo + MS StereoCodec ID : A_MPEG/L2Codec ID/Hint : MP2Duration : 1 h 35 minBit rate mode : ConstantBit rate : 192 kb/sChannel(s) : 2 channelsSampling rate : 48.0 kHzCompression mode : LossyStream size : 131 MiB (6%)Language : FrenchDefault : YesForced : No
    Text #1ID : 3Format : UTF-8Codec ID : S_TEXT/UTF8Codec ID/Info : UTF-8 Plain TextLanguage : RussianDefault : NoForced : No
    Text #2ID : 4Format : UTF-8Codec ID : S_TEXT/UTF8Codec ID/Info : UTF-8 Plain TextLanguage : EnglishDefault : NoForced : No
    Text #3ID : 5Format : UTF-8Codec ID : S_TEXT/UTF8Codec ID/Info : UTF-8 Plain TextLanguage : FrenchDefault : NoForced : No
    Text #4ID : 6Format : UTF-8Codec ID : S_TEXT/UTF8Codec ID/Info : UTF-8 Plain TextLanguage : GermanDefault : NoForced : No
    Text #5ID : 7Format : UTF-8Codec ID : S_TEXT/UTF8Codec ID/Info : UTF-8 Plain TextLanguage : DutchDefault : NoForced : No

    Скриншот c названием фильма

    Скриншоты

    Резервные скриншоты


    -
    Скачать .torrent

    Скачать торрент-файл бесплатно и на максимальной скорости!

    Как скачивать? · Что такое торрент? · Рейтинг и ограничения

    !ВНИМАНИЕ!
    Сайт не распространяет и не хранит электронные версии произведений, а занимается лишь лишь предоставлением доступа к создаваемому пользователями каталогу ссылок на торрент-файлы, которые содержат только списки хеш-сумм, убедительная просьба с жалобами обращаться напрямую к пользователю. Файлы для обмена на трекере предоставлены пользователями сайта, и администрация не несёт ответственности за их содержание. Просьба не заливать файлы, защищенные авторскими правами, а также файлы нелегального содержания!


    _________________
    [Профиль] [ЛС]
    Показать сообщения:    
    Ответить на тему

    Текущее время: Сегодня, в 16:43

    Часовой пояс: GMT + 2



    Вы не можете начинать темы
    Вы не можете отвечать на сообщения
    Вы не можете редактировать свои сообщения
    Вы не можете удалять свои сообщения
    Вы не можете голосовать в опросах
    Вы не можете прикреплять файлы к сообщениям
    Вы не можете скачивать файлы