BitTorrentTracker PerecTracker.org
BitTorrentTracker PerecTracker.org
    
Регистрация  ·  Вход
 
 · 
Забыли пароль?

  • Белоснежка и Охотник 2 / The Huntsman: Winter\'s War (Седрик Николя-Троян / Cedric Nicolas-Troyan ) [2016, США, Фэнтези, боевик, драма, приключения, BDRip, HD (720p)] Extended Edition] DUB + Original + sub (rus, eng)

    Ответить на тему
     
    Автор Сообщение

    rechyn

    Создавать темы 11-Авг-2016 07:57

           

    [Цитировать]

    Белоснежка и Охотник 2 / The Huntsman: Winter's War
    (Extended Edition)

    «The story before Snow White»
    6.085 / 10 6.10 / 10
    -Год выпуска: 2016
    Страна: США
    Жанр: Фэнтези, боевик, драма, приключения
    Продолжительность: 02:00:10
    Перевод: Дублированный (Лицензия)
    Оригинальная аудиодорожка: Есть
    Cубтитры: Русские, Английские
    Режиссёр: Седрик Николя-Троян
    Сценарий: Эван Спилиотопулос, Крэйг Мазин, Ивэн Догерти
    Продюсер: Джо Рот, Сара Брэдшоу, Палак Патель
    Оператор: Фидон Папамайкл
    Композитор: Джеймс Ньютон Ховард
    Художник: Доминик Уоткинс, Эндрю Эклэнд-Сноу, Джон Франкиш
    Монтаж: Конрад Бафф IV
    В ролях: Крис Хемсворт, Шарлиз Терон, Джессика Честейн, Эмили Блант, Ник Фрост, Роб Брайдон, Шеридан Смит, Александра Роуч, Сопе Дирису, Сэм Хэзелдайн
    Бюджет: $115 000 000
    Сборы в США: $48 003 015
    Сборы в мире: + $116 599 148 = $164 602 163
    Сборы в России: $3 832 682
    Мировая премьера: 29 марта 2016
    Премьера (РФ): 14 апреля 2016, «UPI»
    Описание: Когда любовь уходит, сердце прекрасной девы обращается в лед. И даже сотни королевств не смогут сдержать поступь ее несметного воинства. Лишь Охотник не ведает страха. Сквозь проклятый лес он идет навстречу своей судьбе.-Качество исходника: BDRemux (NNMClub)
    Качество: BDRip
    Тип: HD (720p)
    Контейнер: M4V
    Видео: H.264, 1280x544, 2.35:1, 3 500 Kbps, 23.976 fps
    Аудио 1: Русский/Дублированный (Лицензия), AAC / 2.0 / 160 Kbps / 48.0 KHz
    Аудио 2: Английский/Оригинальная дорожка , AAC / 2.0 / 160 Kbps / 48.0 KHz
    Аудио 3: Русский/Дублированный (Лицензия), AC-3 / 5.1 / 640 Kbps / 48.0 KHz
    Аудио 4: Английский/Оригинальная дорожка , AC-3 / 5.1 / 640 Kbps / 48.0 KHz
    Субтитры 1: Русские полные
    Субтитры 2: Английские полные
    -

    iTunes Meta Tags

    Sort Name: Huntsman: Winter's War (Extended Edition)
    XID: Apple:vendor_id:2016-680394
    contentID: 1106053373
    Copyright: © 2015 Universal Studios. All Rights Reserved.
    Screenwriters: Эван Спилиотопулос, Крэйг Мазин, Ивэн Догерти
    Producers: Джо Рот, Сара Брэдшоу, Палак Патель
    Director: Седрик Николя-Троян
    Cast: Крис Хемсворт, Шарлиз Терон, Джессика Честейн, Эмили Блант, Ник Фрост, Роб Брайдон, Шеридан Смит, Александра Роуч, Сопе Дирису, Сэм Хэзелдайн
    Studio: Universal Pictures
    Rating Annotation: Rated Unrated for fantasy action violence and some sensuality.
    Rating: 0
    Long Description: Когда Равенна и её сестра, ледяная королева Фрейя, готовятся завоевать Землю, два перебежчика - охотник Эрик, ранее помогший Белоснежке победить Равенну, и его запретная возлюбленная Сара - намерены остановить их.
    Description: Когда Равенна и её сестра, ледяная королева Фрейя, готовятся завоевать Землю, два перебежчика - охотник Эрик, ранее помогший Белоснежке победить Равенну, и его запретная возлюбленная Сара - намерены остановить их.
    Release Date: 2016-04-07T08:00:00Z
    Genre: Action & Adventure
    Artist: Cedric Nicolas-Troyan
    Name: The Huntsman: Winter's War (Extended Edition)

    MediaInfo

    General
    Complete name : /Users/imac/HandBrake/The Huntsman 2 (720p HD) (Extended Edition).m4v
    Format : MPEG-4
    Codec ID : M4V
    File size : 4.28 GiB
    Duration : 2h 0mn
    Overall bit rate mode : Variable
    Overall bit rate : 5 099 Kbps
    Movie name : The Huntsman: Winter\'s War (Extended Edition)
    Performer : Cedric Nicolas-Troyan
    Director : Седрик Николя-Троян
    Actor : Крис Хемсворт / Шарлиз Терон / Джессика Честейн / Эмили Блант / Ник Фрост / Роб Брайдон / Шеридан Смит / Александра Роуч / Сопе Дирису / Сэм Хэзелдайн
    Screenplay by : Эван Спилиотопулос / Крэйг Мазин / Ивэн Догерти
    Producer : Джо Рот / Сара Брэдшоу / Палак Патель
    Production studio : Universal Pictures
    Genre : Action & Adventure
    ContentType : Short Film
    Description : Когда Равенна и её сестра, ледяная королева Фрейя, готовятся завоевать Землю, два перебежчика - охотник Эрик, ранее помогший Белоснежке победить Равенну, и его запретная возлюбленная Сара - намерены остановить их.
    Recorded date : UTC 2016-04-07 08:00:00
    Encoded date : UTC 2016-08-10 23:06:49
    Tagged date : UTC 2016-08-10 23:10:52
    Copyright : © 2015 Universal Studios. All Rights Reserved.
    Cover : Yes
    Rating : None
    Title/Sort : Huntsman: Winter's War (Extended Edition)
    LongDescription : Когда Равенна и её сестра, ледяная королева Фрейя, готовятся завоевать Землю, два перебежчика - охотник Эрик, ранее помогший Белоснежке победить Равенну, и его запретная возлюбленная Сара - намерены остановить их.
    HDVideo : Yes
    AppleStoreCatalogID : 1106053373
    Vendor : Apple:vendor_id:2016-680394
    ContentRating : mpaa|Unrated|???|Rated Unrated for fantasy action violence and some sensuality.
    Video #1
    ID : 1
    Format : AVC
    Format/Info : Advanced Video Codec
    Format profile : High@L3.1
    Format settings, CABAC : No
    Format settings, ReFrames : 3 frames
    Codec ID : avc1
    Codec ID/Info : Advanced Video Coding
    Duration : 2h 0mn
    Source duration : 2h 0mn
    Bit rate : 3 500 Kbps
    Width : 1 280 pixels
    Height : 544 pixels
    Display aspect ratio : 2.35:1
    Frame rate mode : Variable
    Frame rate : 23.976 fps
    Minimum frame rate : 13.889 fps
    Maximum frame rate : 24.390 fps
    Color space : YUV
    Chroma subsampling : 4:2:0
    Bit depth : 8 bits
    Scan type : Progressive
    Bits/(Pixel*Frame) : 0.210
    Stream size : 2.93 GiB (69%)
    Source stream size : 2.93 GiB (69%)
    Title : Main Program
    Writing library : x264 core 142 r2479 dd79a61
    Encoding settings : cabac=0 / ref=3 / deblock=1:-3:-3 / analyse=0x3:0x113 / me=umh / subme=9 / psy=1 / psy_rd=1.00:0.15 / mixed_ref=1 / me_range=32 / chroma_me=1 / trellis=0 / 8x8dct=1 / cqm=0 / deadzone=21,11 / fast_pskip=0 / chroma_qp_offset=-2 / threads=36 / lookahead_threads=3 / sliced_threads=0 / nr=0 / decimate=0 / interlaced=0 / bluray_compat=0 / constrained_intra=0 / bframes=3 / b_pyramid=0 / b_adapt=2 / b_bias=0 / direct=1 / weightb=0 / open_gop=0 / weightp=0 / keyint=240 / keyint_min=24 / scenecut=40 / intra_refresh=0 / rc_lookahead=40 / rc=2pass / mbtree=1 / bitrate=3500 / ratetol=1.0 / qcomp=0.65 / qpmin=0 / qpmax=69 / qpstep=4 / cplxblur=20.0 / qblur=0.5 / vbv_maxrate=9500 / vbv_bufsize=9500 / nal_hrd=none / filler=0 / ip_ratio=1.40 / aq=1:1.10
    Language : English
    Encoded date : UTC 2016-08-10 23:06:49
    Tagged date : UTC 2016-08-10 23:06:55
    Color range : Limited
    Color primaries : BT.709
    Transfer characteristics : BT.709
    Matrix coefficients : BT.709
    Video #2
    ID : 9
    Format : JPEG
    Codec ID : jpeg
    Duration : 2h 0mn
    Bit rate mode : Variable
    Bit rate : 979 bps
    Width : 640 pixels
    Height : 272 pixels
    Display aspect ratio : 2.35:1
    Frame rate mode : Variable
    Frame rate : 0.003 fps
    Minimum frame rate : 0.002 fps
    Maximum frame rate : 0.008 fps
    Color space : YUV
    Chroma subsampling : 4:2:0
    Bit depth : 8 bits
    Compression mode : Lossy
    Bits/(Pixel*Frame) : 1.875
    Stream size : 797 KiB (0%)
    Title : Chapter Images
    Language : English
    Encoded date : UTC 2016-08-10 23:07:36
    Tagged date : UTC 2016-08-10 23:07:36
    Audio #1
    ID : 2
    Format : AAC
    Format/Info : Advanced Audio Codec
    Format profile : LC
    Codec ID : 40
    Duration : 2h 0mn
    Bit rate mode : Variable
    Bit rate : 157 Kbps
    Maximum bit rate : 226 Kbps
    Channel(s) : 2 channels
    Channel positions : Front: L R
    Sampling rate : 48.0 KHz
    Compression mode : Lossy
    Stream size : 135 MiB (3%)
    Title : Russian Stereo
    Language : Russian
    Encoded date : UTC 2016-08-10 23:06:49
    Tagged date : UTC 2016-08-10 23:07:31
    Audio #2
    ID : 3
    Format : AAC
    Format/Info : Advanced Audio Codec
    Format profile : LC
    Codec ID : 40
    Duration : 2h 0mn
    Bit rate mode : Variable
    Bit rate : 158 Kbps
    Maximum bit rate : 243 Kbps
    Channel(s) : 2 channels
    Channel positions : Front: L R
    Sampling rate : 48.0 KHz
    Compression mode : Lossy
    Stream size : 136 MiB (3%)
    Title : English Stereo
    Language : English
    Encoded date : UTC 2016-08-10 23:06:49
    Tagged date : UTC 2016-08-10 23:07:31
    Audio #3
    ID : 4
    Format : AC-3
    Format/Info : Audio Coding 3
    Mode extension : CM (complete main)
    Format settings, Endianness : Big
    Codec ID : ac-3
    Duration : 2h 0mn
    Bit rate mode : Constant
    Bit rate : 640 Kbps
    Channel(s) : 6 channels
    Channel positions : Front: L C R, Side: L R, LFE
    Sampling rate : 48.0 KHz
    Bit depth : 16 bits
    Compression mode : Lossy
    Stream size : 550 MiB (13%)
    Title : Russian DD 5.1
    Language : Russian
    Encoded date : UTC 2016-08-10 23:06:49
    Tagged date : UTC 2016-08-10 23:07:31
    Audio #4
    ID : 5
    Format : AC-3
    Format/Info : Audio Coding 3
    Mode extension : CM (complete main)
    Format settings, Endianness : Big
    Codec ID : ac-3
    Duration : 2h 0mn
    Bit rate mode : Constant
    Bit rate : 640 Kbps
    Channel(s) : 6 channels
    Channel positions : Front: L C R, Side: L R, LFE
    Sampling rate : 48.0 KHz
    Bit depth : 16 bits
    Compression mode : Lossy
    Stream size : 550 MiB (13%)
    Title : English DD 5.1
    Language : English
    Encoded date : UTC 2016-08-10 23:06:49
    Tagged date : UTC 2016-08-10 23:07:31
    Text #1
    ID : 6
    Format : Timed Text
    Muxing mode : sbtl
    Codec ID : tx3g
    Duration : 2h 0mn
    Bit rate mode : Variable
    Bit rate : 63 bps
    Stream size : 55.2 KiB (0%)
    Title : Russian full
    Language : Russian
    Encoded date : UTC 2016-08-10 23:06:49
    Tagged date : UTC 2016-08-10 23:07:28
    Text #2
    ID : 7
    Format : Timed Text
    Muxing mode : sbtl
    Codec ID : tx3g
    Duration : 1h 50mn
    Bit rate mode : Variable
    Bit rate : 41 bps
    Stream size : 33.1 KiB (0%)
    Title : English full
    Language : English
    Encoded date : UTC 2016-08-10 23:06:49
    Tagged date : UTC 2016-08-10 23:07:28
    Menu #1
    00:00:00.000 : 00:00:00.000
    00:06:26.511 : 00:06:26.428
    00:09:26.941 : 00:09:26.858
    00:15:03.277 : 00:15:03.194
    00:21:33.584 : 00:21:33.501
    00:30:17.956 : 00:30:17.858
    00:36:08.258 : 00:36:08.166
    00:40:55.767 : 00:40:55.661
    00:46:56.573 : 00:46:56.439
    00:52:05.882 : 00:52:05.748
    00:59:35.705 : 00:59:35.530
    01:04:24.119 : 01:04:23.943
    01:11:16.781 : 01:11:16.689
    01:15:19.398 : 01:15:19.223
    01:22:42.925 : 01:22:42.833
    01:28:15.382 : 01:28:15.206
    01:33:58.210 : 01:33:58.007
    01:39:22.075 : 01:39:21.956
    01:48:14.023 : 01:48:13.904
    01:50:19.690 : 01:50:19.571
    Menu #2
    ID : 8
    Codec ID : text
    Duration : 2h 0mn
    Language : English
    Encoded date : UTC 2016-08-10 23:07:31
    Tagged date : UTC 2016-08-10 23:07:31
    Bit rate mode : CBR
    00:00:00.000 : 00:00:00.000
    00:06:26.511 : 00:06:26.428
    00:09:26.941 : 00:09:26.858
    00:15:03.277 : 00:15:03.194
    00:21:33.584 : 00:21:33.501
    00:30:17.956 : 00:30:17.858
    00:36:08.258 : 00:36:08.166
    00:40:55.767 : 00:40:55.661
    00:46:56.573 : 00:46:56.439
    00:52:05.882 : 00:52:05.748
    00:59:35.705 : 00:59:35.530
    01:04:24.119 : 01:04:23.943
    01:11:16.781 : 01:11:16.689
    01:15:19.398 : 01:15:19.223
    01:22:42.925 : 01:22:42.833
    01:28:15.382 : 01:28:15.206
    01:33:58.210 : 01:33:58.007
    01:39:22.075 : 01:39:21.956
    01:48:14.023 : 01:48:13.904
    01:50:19.690 : 01:50:19.571

    x264 лог

    x264 [info]: frame I:1831  Avg QP:15.32  size:111119
    x264 [info]: frame P:62998 Avg QP:17.88  size: 32663
    x264 [info]: frame B:108045 Avg QP:20.11  size:  8212
    x264 [info]: consecutive B-frames:  4.6% 23.9% 36.9% 34.6%
    x264 [info]: mb I  I16..4:  5.2% 61.0% 33.8%
    x264 [info]: mb P  I16..4:  1.1%  5.8%  2.9%  P16..4: 47.0% 27.2% 11.3%  0.0%  0.0%    skip: 4.8%
    x264 [info]: mb B  I16..4:  0.1%  0.7%  0.4%  B16..8: 44.2% 10.5%  1.6%  direct: 4.3%  skip:38.2%  L0:39.6% L1:52.1% BI: 8.3%
    x264 [info]: 8x8 transform intra:59.1% inter:44.1%
    x264 [info]: coded y,uvDC,uvAC intra: 87.7% 77.0% 50.2% inter: 28.2% 17.0% 8.2%
    x264 [info]: i16 v,h,dc,p: 48% 12%  9% 31%
    x264 [info]: i8 v,h,dc,ddl,ddr,vr,hd,vl,hu:  8%  6%  4% 11% 16% 16% 14% 12% 11%
    x264 [info]: i4 v,h,dc,ddl,ddr,vr,hd,vl,hu:  8%  7%  3% 12% 18% 17% 14% 12% 10%
    x264 [info]: i8c dc,h,v,p: 54% 16% 19% 11%
    x264 [info]: ref P L0: 75.2% 15.1%  9.7%
    x264 [info]: ref B L0: 80.4% 19.6%
    x264 [info]: kb/s:3493.16

    Скриншоты

    -

    Релиз подготовлен для просмотра на Apple TV, iPad, iPhone, iPod Touch.
    Для просмотра данного релиза на компьютере с ОС Windows рекомендуется использовать VLC media player
    Скачать .torrent

    Скачать торрент-файл бесплатно и на максимальной скорости!

    Как скачивать? · Что такое торрент? · Рейтинг и ограничения

    !ВНИМАНИЕ!
    Сайт не распространяет и не хранит электронные версии произведений, а занимается лишь лишь предоставлением доступа к создаваемому пользователями каталогу ссылок на торрент-файлы, которые содержат только списки хеш-сумм, убедительная просьба с жалобами обращаться напрямую к пользователю. Файлы для обмена на трекере предоставлены пользователями сайта, и администрация не несёт ответственности за их содержание. Просьба не заливать файлы, защищенные авторскими правами, а также файлы нелегального содержания!


    _________________
    [Профиль] [ЛС]
    Показать сообщения:    
    Ответить на тему

    Текущее время: Сегодня, в 06:47

    Часовой пояс: GMT + 2



    Вы не можете начинать темы
    Вы не можете отвечать на сообщения
    Вы не можете редактировать свои сообщения
    Вы не можете удалять свои сообщения
    Вы не можете голосовать в опросах
    Вы не можете прикреплять файлы к сообщениям
    Вы не можете скачивать файлы