BitTorrentTracker PerecTracker.org
BitTorrentTracker PerecTracker.org
    
Регистрация  ·  Вход
 
 · 
Забыли пароль?

  • Путь на юг / Southbound (Роксанна Бенжамин / Roxanne Benjamin, Дэвид Брукнер / David Bruckner, Патрик Хорват / Patrick Horvath) [2015, США, ужасы, фантастика, триллер, BDRip-AVC] VO (Д. Есарев) + Original + Sub (eng)

    Ответить на тему
     
    Автор Сообщение

    Light

    Создавать темы 11-Авг-2016 07:57

           

    [Цитировать]

    Путь на юг / Southbound«No matter which road you choose, it's all going south»-Страна: США
    Жанр: ужасы, фантастика, триллер
    Год выпуска: 2015
    Продолжительность: 01:29:09
    Перевод: Одноголосый закадровый (Дмитрий Есарев)
    Оригинальная аудиодорожка: английский
    Cубтитры: английские (полные)
    Навигация по главам: есть
    Режиссеры: Роксанна Бенжамин / Roxanne Benjamin, Дэвид Брукнер / David Bruckner, Патрик Хорват / Patrick Horvath
    В ролях: Чад Виллелла, Мэттью Беттинелли, Кристина Пешич, Фаббианн Терез, Натали Лав, Ханна Маркс, Дэна Гулд, Энесса Ремси, Сьюзэн Бурк, Дэйв Джонсон
    Описание: Пустынный участок дороги, усталые путники — двое мужчин, бегущих от своего прошлого, группа на пути к следующему концерту, человек пытающийся попасть домой, брат в поисках давно потерянной сестры и семьи на отдыхе — вынуждены противостоять своим страхам и самым темным тайнам, чтобы раскаяться на дороге.- -Качество видео: BDRip-AVC (исходник - BDRemux|Southbound.2015.1080p.BluRay.REMUX.AVC.DTS-HD.MA.5.1-FGT)
    Формат видео: MKV
    Видео: x264, 1152x482 (2.40:1), 23,976 fps, ~2600 kbps, 0.195 bit/pixel
    Аудио 1: 48 kHz, AC3 Dolby Digital, 3/2 (L,C,R,l,r) + LFE ch, ~448 kbps [русский]
    Аудио 2: 48 kHz, AC3 Dolby Digital, 3/2 (L,C,R,l,r) + LFE ch, ~448 kbps [английский]
    Формат субтитров: softsub (SRT)
    MediaInfo | x264 log
    Format : Matroska
    Format version : Version 4 / Version 2
    File size : 2.17 GiB
    Duration : 1h 29mn
    Overall bit rate : 3 491 Kbps
    Movie name : Путь на юг / Southbound (2015) :: AFM ::
    Encoded date : UTC 2016-08-09 21:46:53
    Writing application : mkvmerge v8.3.0 ('Over the Horizon') 32bit
    Writing library : libebml v1.3.1 + libmatroska v1.4.2
    Video
    ID : 1
    Format : AVC
    Format/Info : Advanced Video Codec
    Format profile : High@L4.1
    Format settings, CABAC : Yes
    Format settings, ReFrames : 11 frames
    Codec ID : V_MPEG4/ISO/AVC
    Duration : 1h 29mn
    Bit rate : 2 600 Kbps
    Width : 1 152 pixels
    Height : 482 pixels
    Display aspect ratio : 2.40:1
    Frame rate mode : Constant
    Frame rate : 23.976 fps
    Color space : YUV
    Chroma subsampling : 4:2:0
    Bit depth : 8 bits
    Scan type : Progressive
    Bits/(Pixel*Frame) : 0.195
    Stream size : 1.57 GiB (72%)
    Title : BDRip by AFM [RuTracker.org]
    Writing library : x264 core 148 r2705+54 9f484c1 t_mod_Custom [8-bit@all X86_64]
    Encoding settings : cabac=1 / ref=11 / deblock=1:-2:-2 / analyse=0x3:0x113 / me=umh / subme=10 / psy=1 / fade_compensate=0.00 / psy_rd=1.00:0.00 / mixed_ref=1 / me_range=32 / chroma_me=1 / trellis=2 / 8x8dct=1 / cqm=0 / deadzone=21,11 / fast_pskip=0 / chroma_qp_offset=-2 / threads=6 / lookahead_threads=1 / sliced_threads=0 / nr=0 / decimate=0 / interlaced=0 / bluray_compat=0 / constrained_intra=0 / fgo=0 / bframes=12 / b_pyramid=2 / b_adapt=2 / b_bias=0 / direct=3 / weightb=1 / open_gop=0 / weightp=2 / keyint=250 / keyint_min=23 / scenecut=40 / intra_refresh=0 / rc_lookahead=40 / rc=2pass / mbtree=0 / bitrate=2600 / ratetol=1.0 / qcomp=0.65 / qpmin=0:0:0 / qpmax=69:69:69 / qpstep=4 / cplxblur=20.0 / qblur=0.5 / vbv_maxrate=50000 / vbv_bufsize=62500 / nal_hrd=none / filler=0 / ip_ratio=1.35 / pb_ratio=1.30 / aq=3:0.80 / aq-sensitivity=10.00 / aq-factor=1.00:1.00:1.00 / aq2=0 / aq3=0
    Language : English
    Default : Yes
    Forced : No
    Audio #1
    ID : 2
    Format : AC-3
    Format/Info : Audio Coding 3
    Mode extension : CM (complete main)
    Format settings, Endianness : Big
    Codec ID : A_AC3
    Duration : 1h 29mn
    Bit rate mode : Constant
    Bit rate : 448 Kbps
    Channel(s) : 6 channels
    Channel positions : Front: L C R, Side: L R, LFE
    Sampling rate : 48.0 KHz
    Compression mode : Lossy
    Stream size : 286 MiB (13%)
    Title : AVO (Esarev) AC3 5.1 ~448 kbps
    Language : Russian
    Default : Yes
    Forced : No
    Audio #2
    ID : 3
    Format : AC-3
    Format/Info : Audio Coding 3
    Mode extension : CM (complete main)
    Format settings, Endianness : Big
    Codec ID : A_AC3
    Duration : 1h 29mn
    Bit rate mode : Constant
    Bit rate : 448 Kbps
    Channel(s) : 6 channels
    Channel positions : Front: L C R, Side: L R, LFE
    Sampling rate : 48.0 KHz
    Compression mode : Lossy
    Stream size : 286 MiB (13%)
    Title : Original, AC3 5.1 ~448 kbps
    Language : English
    Default : No
    Forced : No
    Text
    ID : 4
    Format : UTF-8
    Codec ID : S_TEXT/UTF8
    Codec ID/Info : UTF-8 Plain Text
    Language : English
    Default : No
    Forced : No
    Menu
    00:00:00.000 : en:Chapter 01
    00:07:20.857 : en:Chapter 02
    00:15:01.901 : en:Chapter 03
    00:21:37.713 : en:Chapter 04
    00:29:04.743 : en:Chapter 05
    00:36:01.159 : en:Chapter 06
    00:40:06.821 : en:Chapter 07
    00:50:18.641 : en:Chapter 08
    00:55:06.720 : en:Chapter 09
    01:06:15.972 : en:Chapter 10
    01:11:54.310 : en:Chapter 11
    01:25:51.772 : en:Chapter 12

    x264

    x264 [info]: frame I:855 Avg QP:14.54 size: 67821
    x264 [info]: frame P:25977 Avg QP:17.34 size: 25362
    x264 [info]: frame B:101427 Avg QP:19.55 size: 10026
    x264 [info]: consecutive B-frames: 2.0% 2.3% 9.0% 9.6% 14.7% 43.9% 6.3% 2.7% 1.8% 2.0% 2.0% 1.7% 1.9%
    x264 [info]: mb I I16..4: 7.5% 81.2% 11.3%
    x264 [info]: mb P I16..4: 1.9% 13.1% 1.4% P16..4: 38.1% 25.9% 13.4% 0.0% 0.0% skip: 6.1%
    x264 [info]: mb B I16..4: 0.1% 1.2% 0.1% B16..8: 44.1% 13.3% 3.1% direct: 4.8% skip:33.3% L0:48.7% L1:45.5% BI: 5.8%
    x264 [info]: 8x8 transform intra:81.0% inter:64.2%
    x264 [info]: direct mvs spatial:99.0% temporal:1.0%
    x264 [info]: coded y,uvDC,uvAC intra: 82.8% 64.2% 37.1% inter: 27.0% 16.4% 4.7%
    x264 [info]: i16 v,h,dc,p: 48% 14% 9% 28%
    x264 [info]: i8 v,h,dc,ddl,ddr,vr,hd,vl,hu: 15% 7% 10% 9% 13% 13% 12% 11% 10%
    x264 [info]: i4 v,h,dc,ddl,ddr,vr,hd,vl,hu: 24% 6% 4% 9% 13% 14% 11% 10% 9%
    x264 [info]: i8c dc,h,v,p: 37% 29% 22% 13%
    x264 [info]: Weighted P-Frames: Y:3.7% UV:1.8%
    x264 [info]: ref P L0: 44.1% 7.3% 17.5% 7.5% 6.3% 4.5% 4.2% 2.3% 2.3% 1.8% 1.9% 0.1% 0.0%
    x264 [info]: ref B L0: 63.8% 13.7% 7.9% 4.2% 3.1% 2.7% 2.1% 1.4% 0.9% 0.3%
    x264 [info]: ref B L1: 92.0% 8.0%
    x264 [info]: kb/s:2592.72

    Скриншоты

    с названием

    Скачать .torrent

    Скачать торрент-файл бесплатно и на максимальной скорости!

    Как скачивать? · Что такое торрент? · Рейтинг и ограничения

    !ВНИМАНИЕ!
    Сайт не распространяет и не хранит электронные версии произведений, а занимается лишь лишь предоставлением доступа к создаваемому пользователями каталогу ссылок на торрент-файлы, которые содержат только списки хеш-сумм, убедительная просьба с жалобами обращаться напрямую к пользователю. Файлы для обмена на трекере предоставлены пользователями сайта, и администрация не несёт ответственности за их содержание. Просьба не заливать файлы, защищенные авторскими правами, а также файлы нелегального содержания!


    _________________
    [Профиль] [ЛС]
    Показать сообщения:    
    Ответить на тему

    Текущее время: Сегодня, в 01:52

    Часовой пояс: GMT + 2



    Вы не можете начинать темы
    Вы не можете отвечать на сообщения
    Вы не можете редактировать свои сообщения
    Вы не можете удалять свои сообщения
    Вы не можете голосовать в опросах
    Вы не можете прикреплять файлы к сообщениям
    Вы не можете скачивать файлы