BitTorrentTracker PerecTracker.org
BitTorrentTracker PerecTracker.org
    
Регистрация  ·  Вход
 
 · 
Забыли пароль?

  • [ATV3] Белоснежка и Охотник 2 / The Huntsman: Winter\'s War (Седрик Николя-Троян / Cedric Nicolas-Troyan ) [2016, США, Фэнтези, боевик, драма, приключения, BDRip, HD (1080p)] [Extended Edition] DUB + Original + sub (rus, eng)

    Ответить на тему
     
    Автор Сообщение

    rechyn

    Создавать темы 10-Авг-2016 04:17

           

    [Цитировать]

    Белоснежка и Охотник 2 / The Huntsman: Winter's War
    (Extended Edition)

    «The story before Snow White»
    6.086 / 10 6.10 / 10
    -Год выпуска: 2016
    Страна: США
    Жанр: Фэнтези, боевик, драма, приключения
    Продолжительность: 02:00:10
    Перевод: Дублированный (Лицензия)
    Оригинальная аудиодорожка: Есть
    Cубтитры: Русские, Английские
    Режиссёр: Седрик Николя-Троян
    Сценарий: Эван Спилиотопулос, Крэйг Мазин, Ивэн Догерти
    Продюсер: Джо Рот, Сара Брэдшоу, Палак Патель
    Оператор: Фидон Папамайкл
    Композитор: Джеймс Ньютон Ховард
    Художник: Доминик Уоткинс, Эндрю Эклэнд-Сноу, Джон Франкиш
    Монтаж: Конрад Бафф IV
    В ролях: Крис Хемсворт, Шарлиз Терон, Джессика Честейн, Эмили Блант, Ник Фрост, Роб Брайдон, Шеридан Смит, Александра Роуч, Сопе Дирису, Сэм Хэзелдайн
    Бюджет: $115 000 000
    Сборы в США: $48 003 015
    Сборы в мире: + $116 599 148 = $164 602 163
    Сборы в России: $3 832 682
    Мировая премьера: 29 марта 2016
    Премьера (РФ): 14 апреля 2016, «UPI»
    Описание: Когда любовь уходит, сердце прекрасной девы обращается в лед. И даже сотни королевств не смогут сдержать поступь ее несметного воинства. Лишь Охотник не ведает страха. Сквозь проклятый лес он идет навстречу своей судьбе.-Качество исходника: BDRemux (NNMClub)
    Качество: BDRip
    Тип: HD (1080p)
    Контейнер: M4V
    Видео: H.264, 1920x800, 2.40:1, 8 000 Kbps, 23.976 fps
    Аудио 1: Русский/Дублированный (Лицензия), AAC / 2.0 / 160 Kbps / 48.0 KHz
    Аудио 2: Английский/Оригинальная дорожка , AAC / 2.0 / 160 Kbps / 48.0 KHz
    Аудио 3: Русский/Дублированный (Лицензия), AC-3 / 5.1 / 640 Kbps / 48.0 KHz
    Аудио 4: Английский/Оригинальная дорожка , AC-3 / 5.1 / 640 Kbps / 48.0 KHz
    Субтитры 1: Русские полные
    Субтитры 2: Английские полные
    -

    iTunes Meta Tags

    Sort Name: Huntsman: Winter's War (Extended Edition)
    XID: Apple:vendor_id:2016-680394
    contentID: 1106053373
    Copyright: © 2015 Universal Studios. All Rights Reserved.
    Screenwriters: Эван Спилиотопулос, Крэйг Мазин, Ивэн Догерти
    Producers: Джо Рот, Сара Брэдшоу, Палак Патель
    Director: Седрик Николя-Троян
    Cast: Крис Хемсворт, Шарлиз Терон, Джессика Честейн, Эмили Блант, Ник Фрост, Роб Брайдон, Шеридан Смит, Александра Роуч, Сопе Дирису, Сэм Хэзелдайн
    Studio: Universal Pictures
    Rating Annotation: Rated Unrated for fantasy action violence and some sensuality.
    Rating: 0
    Long Description: Когда Равенна и её сестра, ледяная королева Фрейя, готовятся завоевать Землю, два перебежчика - охотник Эрик, ранее помогший Белоснежке победить Равенну, и его запретная возлюбленная Сара - намерены остановить их.
    Description: Когда Равенна и её сестра, ледяная королева Фрейя, готовятся завоевать Землю, два перебежчика - охотник Эрик, ранее помогший Белоснежке победить Равенну, и его запретная возлюбленная Сара - намерены остановить их.
    Release Date: 2016-04-07T08:00:00Z
    Genre: Action & Adventure
    Artist: Cedric Nicolas-Troyan
    Name: The Huntsman: Winter's War (Extended Edition)

    MediaInfo

    General
    Complete name : /Users/imac/HandBrake/The Huntsman 2 (1080p HD) (Extended Edition).m4v
    Format : MPEG-4
    Codec ID : M4V
    File size : 8.06 GiB
    Duration : 2h 0mn
    Overall bit rate mode : Variable
    Overall bit rate : 9 603 Kbps
    Movie name : The Huntsman: Winter\'s War (Extended Edition)
    Performer : Cedric Nicolas-Troyan
    Director : Седрик Николя-Троян
    Actor : Крис Хемсворт / Шарлиз Терон / Джессика Честейн / Эмили Блант / Ник Фрост / Роб Брайдон / Шеридан Смит / Александра Роуч / Сопе Дирису / Сэм Хэзелдайн
    Screenplay by : Эван Спилиотопулос / Крэйг Мазин / Ивэн Догерти
    Producer : Джо Рот / Сара Брэдшоу / Палак Патель
    Production studio : Universal Pictures
    Genre : Action & Adventure
    ContentType : Short Film
    Description : Когда Равенна и её сестра, ледяная королева Фрейя, готовятся завоевать Землю, два перебежчика - охотник Эрик, ранее помогший Белоснежке победить Равенну, и его запретная возлюбленная Сара - намерены остановить их.
    Recorded date : UTC 2016-04-07 08:00:00
    Encoded date : UTC 2016-08-09 22:59:31
    Tagged date : UTC 2016-08-09 23:01:21
    Copyright : © 2015 Universal Studios. All Rights Reserved.
    Cover : Yes
    Rating : None
    Title/Sort : Huntsman: Winter's War (Extended Edition)
    LongDescription : Когда Равенна и её сестра, ледяная королева Фрейя, готовятся завоевать Землю, два перебежчика - охотник Эрик, ранее помогший Белоснежке победить Равенну, и его запретная возлюбленная Сара - намерены остановить их.
    AppleStoreCatalogID : 1106053373
    Vendor : Apple:vendor_id:2016-680394
    ContentRating : mpaa|Unrated|???|Rated Unrated for fantasy action violence and some sensuality.
    Video #1
    ID : 1
    Format : AVC
    Format/Info : Advanced Video Codec
    Format profile : High@L4
    Format settings, CABAC : Yes
    Format settings, ReFrames : 4 frames
    Codec ID : avc1
    Codec ID/Info : Advanced Video Coding
    Duration : 2h 0mn
    Source duration : 2h 0mn
    Bit rate : 8 000 Kbps
    Width : 1 920 pixels
    Height : 800 pixels
    Display aspect ratio : 2.40:1
    Frame rate mode : Variable
    Frame rate : 23.976 fps
    Minimum frame rate : 13.889 fps
    Maximum frame rate : 24.390 fps
    Color space : YUV
    Chroma subsampling : 4:2:0
    Bit depth : 8 bits
    Scan type : Progressive
    Bits/(Pixel*Frame) : 0.217
    Stream size : 6.71 GiB (83%)
    Source stream size : 6.71 GiB (83%)
    Title : Main Program
    Writing library : x264 core 142 r2479 dd79a61
    Encoding settings : cabac=1 / ref=4 / deblock=1:-2:-2 / analyse=0x3:0x133 / me=umh / subme=10 / psy=1 / psy_rd=1.00:0.15 / mixed_ref=1 / me_range=32 / chroma_me=1 / trellis=2 / 8x8dct=1 / cqm=0 / deadzone=21,11 / fast_pskip=0 / chroma_qp_offset=-3 / threads=36 / lookahead_threads=6 / sliced_threads=0 / nr=0 / decimate=0 / interlaced=0 / bluray_compat=0 / constrained_intra=0 / bframes=16 / b_pyramid=2 / b_adapt=2 / b_bias=0 / direct=3 / weightb=1 / open_gop=0 / weightp=2 / keyint=240 / keyint_min=24 / scenecut=40 / intra_refresh=0 / rc_lookahead=60 / rc=2pass / mbtree=1 / bitrate=8000 / ratetol=1.0 / qcomp=0.70 / qpmin=0 / qpmax=69 / qpstep=4 / cplxblur=20.0 / qblur=0.5 / vbv_maxrate=25000 / vbv_bufsize=25000 / nal_hrd=none / filler=0 / ip_ratio=1.40 / aq=1:1.00
    Language : English
    Encoded date : UTC 2016-08-09 22:59:31
    Tagged date : UTC 2016-08-09 22:59:47
    Color range : Limited
    Color primaries : BT.709
    Transfer characteristics : BT.709
    Matrix coefficients : BT.709
    Video #2
    ID : 9
    Format : JPEG
    Codec ID : jpeg
    Duration : 2h 0mn
    Bit rate mode : Variable
    Bit rate : 963 bps
    Width : 640 pixels
    Height : 266 pixels
    Display aspect ratio : 2.40:1
    Frame rate mode : Variable
    Frame rate : 0.003 fps
    Minimum frame rate : 0.002 fps
    Maximum frame rate : 0.008 fps
    Color space : YUV
    Chroma subsampling : 4:2:0
    Bit depth : 8 bits
    Compression mode : Lossy
    Bits/(Pixel*Frame) : 1.886
    Stream size : 784 KiB (0%)
    Title : Chapter Images
    Language : English
    Encoded date : UTC 2016-08-09 22:59:57
    Tagged date : UTC 2016-08-09 22:59:58
    Audio #1
    ID : 2
    Format : AAC
    Format/Info : Advanced Audio Codec
    Format profile : LC
    Codec ID : 40
    Duration : 2h 0mn
    Bit rate mode : Variable
    Bit rate : 157 Kbps
    Maximum bit rate : 226 Kbps
    Channel(s) : 2 channels
    Channel positions : Front: L R
    Sampling rate : 48.0 KHz
    Compression mode : Lossy
    Stream size : 135 MiB (2%)
    Title : Russian Stereo
    Language : Russian
    Encoded date : UTC 2016-08-09 22:59:31
    Tagged date : UTC 2016-08-09 22:59:49
    Audio #2
    ID : 3
    Format : AAC
    Format/Info : Advanced Audio Codec
    Format profile : LC
    Codec ID : 40
    Duration : 2h 0mn
    Bit rate mode : Variable
    Bit rate : 158 Kbps
    Maximum bit rate : 243 Kbps
    Channel(s) : 2 channels
    Channel positions : Front: L R
    Sampling rate : 48.0 KHz
    Compression mode : Lossy
    Stream size : 136 MiB (2%)
    Title : English Stereo
    Language : English
    Encoded date : UTC 2016-08-09 22:59:31
    Tagged date : UTC 2016-08-09 22:59:49
    Audio #3
    ID : 4
    Format : AC-3
    Format/Info : Audio Coding 3
    Mode extension : CM (complete main)
    Format settings, Endianness : Big
    Codec ID : ac-3
    Duration : 2h 0mn
    Bit rate mode : Constant
    Bit rate : 640 Kbps
    Channel(s) : 6 channels
    Channel positions : Front: L C R, Side: L R, LFE
    Sampling rate : 48.0 KHz
    Bit depth : 16 bits
    Compression mode : Lossy
    Stream size : 550 MiB (7%)
    Title : Russian DD 5.1
    Language : Russian
    Encoded date : UTC 2016-08-09 22:59:31
    Tagged date : UTC 2016-08-09 22:59:39
    Audio #4
    ID : 5
    Format : AC-3
    Format/Info : Audio Coding 3
    Mode extension : CM (complete main)
    Format settings, Endianness : Big
    Codec ID : ac-3
    Duration : 2h 0mn
    Bit rate mode : Constant
    Bit rate : 640 Kbps
    Channel(s) : 6 channels
    Channel positions : Front: L C R, Side: L R, LFE
    Sampling rate : 48.0 KHz
    Bit depth : 16 bits
    Compression mode : Lossy
    Stream size : 550 MiB (7%)
    Title : English DD 5.1
    Language : English
    Encoded date : UTC 2016-08-09 22:59:31
    Tagged date : UTC 2016-08-09 22:59:39
    Text #1
    ID : 6
    Format : Timed Text
    Muxing mode : sbtl
    Codec ID : tx3g
    Duration : 2h 0mn
    Bit rate mode : Variable
    Bit rate : 63 bps
    Stream size : 55.3 KiB (0%)
    Title : Russian full
    Language : Russian
    Encoded date : UTC 2016-08-09 22:59:31
    Tagged date : UTC 2016-08-09 22:59:31
    Text #2
    ID : 7
    Format : Timed Text
    Muxing mode : sbtl
    Codec ID : tx3g
    Duration : 1h 50mn
    Bit rate mode : Variable
    Bit rate : 41 bps
    Stream size : 33.2 KiB (0%)
    Title : English full
    Language : English
    Encoded date : UTC 2016-08-09 22:59:31
    Tagged date : UTC 2016-08-09 22:59:31
    Menu #1
    00:00:00.000 : 00:00:00.000
    00:06:26.511 : 00:06:26.428
    00:09:26.941 : 00:09:26.858
    00:15:03.277 : 00:15:03.194
    00:21:33.584 : 00:21:33.501
    00:30:17.956 : 00:30:17.858
    00:36:08.258 : 00:36:08.166
    00:40:55.767 : 00:40:55.661
    00:46:56.573 : 00:46:56.439
    00:52:05.882 : 00:52:05.748
    00:59:35.705 : 00:59:35.530
    01:04:24.119 : 01:04:23.943
    01:11:16.781 : 01:11:16.689
    01:15:19.398 : 01:15:19.223
    01:22:42.925 : 01:22:42.833
    01:28:15.382 : 01:28:15.206
    01:33:58.210 : 01:33:58.007
    01:39:22.075 : 01:39:21.956
    01:48:14.023 : 01:48:13.904
    01:50:19.690 : 01:50:19.571
    Menu #2
    ID : 8
    Codec ID : text
    Duration : 2h 0mn
    Language : English
    Encoded date : UTC 2016-08-09 22:59:49
    Tagged date : UTC 2016-08-09 22:59:49
    Bit rate mode : CBR
    00:00:00.000 : 00:00:00.000
    00:06:26.511 : 00:06:26.428
    00:09:26.941 : 00:09:26.858
    00:15:03.277 : 00:15:03.194
    00:21:33.584 : 00:21:33.501
    00:30:17.956 : 00:30:17.858
    00:36:08.258 : 00:36:08.166
    00:40:55.767 : 00:40:55.661
    00:46:56.573 : 00:46:56.439
    00:52:05.882 : 00:52:05.748
    00:59:35.705 : 00:59:35.530
    01:04:24.119 : 01:04:23.943
    01:11:16.781 : 01:11:16.689
    01:15:19.398 : 01:15:19.223
    01:22:42.925 : 01:22:42.833
    01:28:15.382 : 01:28:15.206
    01:33:58.210 : 01:33:58.007
    01:39:22.075 : 01:39:21.956
    01:48:14.023 : 01:48:13.904
    01:50:19.690 : 01:50:19.571

    x264 лог

    x264 [info]: frame I:1186  Avg QP:15.58  size:213568
    x264 [info]: frame P:41631 Avg QP:18.33  size: 72286
    x264 [info]: frame B:130057 Avg QP:19.75  size: 30335
    x264 [info]: consecutive B-frames:  3.3%  3.4% 16.2% 14.8% 16.0% 40.5%  3.8%  0.6%  0.5%  0.2%  0.1%  0.1%  0.1%  0.0%  0.0%  0.1%  0.2%
    x264 [info]: mb I  I16..4: 17.0% 68.9% 14.0%
    x264 [info]: mb P  I16..4:  4.0% 19.7%  1.4%  P16..4: 40.2% 17.5% 10.7%  0.4%  0.2%    skip: 6.0%
    x264 [info]: mb B  I16..4:  1.3%  2.3%  0.2%  B16..8: 38.8% 10.8%  2.4%  direct:11.8%  skip:32.4%  L0:41.8% L1:42.5% BI:15.7%
    x264 [info]: 8x8 transform intra:72.1% inter:50.8%
    x264 [info]: direct mvs  spatial:97.7% temporal:2.3%
    x264 [info]: coded y,uvDC,uvAC intra: 92.1% 82.0% 56.6% inter: 37.9% 29.0% 9.6%
    x264 [info]: i16 v,h,dc,p: 13%  8% 48% 32%
    x264 [info]: i8 v,h,dc,ddl,ddr,vr,hd,vl,hu: 10%  8% 12%  9% 12% 12% 12% 12% 13%
    x264 [info]: i4 v,h,dc,ddl,ddr,vr,hd,vl,hu:  9%  8%  8%  9% 14% 14% 14% 11% 13%
    x264 [info]: i8c dc,h,v,p: 49% 21% 18% 12%
    x264 [info]: Weighted P-Frames: Y:4.8% UV:2.6%
    x264 [info]: ref P L0: 50.1% 12.2% 25.6%  9.4%  2.6%  0.1%
    x264 [info]: ref B L0: 83.7% 13.6%  2.7%
    x264 [info]: ref B L1: 91.5%  8.5%
    x264 [info]: kb/s:7997.12

    Скриншоты

    -

    Релиз подготовлен для просмотра на Apple TV, iPad, iPhone, iPod Touch.
    Для просмотра данного релиза на компьютере с ОС Windows рекомендуется использовать VLC media player
    Скачать .torrent

    Скачать торрент-файл бесплатно и на максимальной скорости!

    Как скачивать? · Что такое торрент? · Рейтинг и ограничения

    !ВНИМАНИЕ!
    Сайт не распространяет и не хранит электронные версии произведений, а занимается лишь лишь предоставлением доступа к создаваемому пользователями каталогу ссылок на торрент-файлы, которые содержат только списки хеш-сумм, убедительная просьба с жалобами обращаться напрямую к пользователю. Файлы для обмена на трекере предоставлены пользователями сайта, и администрация не несёт ответственности за их содержание. Просьба не заливать файлы, защищенные авторскими правами, а также файлы нелегального содержания!


    _________________
    [Профиль] [ЛС]
    Показать сообщения:    
    Ответить на тему

    Текущее время: Сегодня, в 06:33

    Часовой пояс: GMT + 2



    Вы не можете начинать темы
    Вы не можете отвечать на сообщения
    Вы не можете редактировать свои сообщения
    Вы не можете удалять свои сообщения
    Вы не можете голосовать в опросах
    Вы не можете прикреплять файлы к сообщениям
    Вы не можете скачивать файлы