BitTorrentTracker PerecTracker.org
BitTorrentTracker PerecTracker.org
    
Регистрация  ·  Вход
 
 · 
Забыли пароль?

  • Бронза / The Bronze (Брайан Бакли / Bryan Buckley) [2015, США, драма, комедия, BDRip-AVC] MVO + Sub (rus)

    Ответить на тему
     
    Автор Сообщение

    Light

    Создавать темы 10-Авг-2016 04:17

           

    [Цитировать]

    Бронза / The Bronze«There's no place like third»-Страна: США
    Жанр: драма, комедия
    Год выпуска: 2015
    Продолжительность: 01:40:10
    Перевод: Профессиональный (многоголосый закадровый) (BD EUR)
    Оригинальная аудиодорожка: нет
    Cубтитры: русские (форс., на надписи)
    Навигация по главам: есть
    Режиссеры: Брайан Бакли / Bryan Buckley
    В ролях: Мелисса Рауш, Гэри Коул, Томас Миддлдитч, Себастьян Стэн, Сесили Стронг, Хейли Лу Ричардсон, Дэйл Рауль, Крэйг Килборн, Ольга Корбут, Dominique Moceanu
    Описание: Сквернословящая бронзовая медалистка по гимнастике вынуждена бороться за свой статус местной знаменитости, когда в городе появляется новый молодой спортсмен.- -Качество видео: BDRip-AVC (исходник - BDRemux|THE_BRONZE_REMUX_HDCLUB)
    Формат видео: MKV
    Видео: x264, 944x510 (1.85:1) 23,976 fps, ~1640 kbps, 0.142 bit/pixel
    Аудио: 48 kHz, AC3 Dolby Digital, 3/2 (L,C,R,l,r) + LFE ch, ~448 kbps
    Формат субтитров: softsub (SRT)
    MediaInfo | x264 log
    Format : Matroska
    Format version : Version 4 / Version 2
    File size : 1.46 GiB
    Duration : 1h 40mn
    Overall bit rate : 2 090 Kbps
    Movie name : Бронза / The Bronze (2015) :: AFM ::
    Encoded date : UTC 2016-08-08 18:56:04
    Writing application : mkvmerge v8.3.0 ('Over the Horizon') 32bit
    Writing library : libebml v1.3.1 + libmatroska v1.4.2
    Video
    ID : 1
    Format : AVC
    Format/Info : Advanced Video Codec
    Format profile : High@L4.1
    Format settings, CABAC : Yes
    Format settings, ReFrames : 8 frames
    Codec ID : V_MPEG4/ISO/AVC
    Duration : 1h 40mn
    Bit rate : 1 640 Kbps
    Width : 944 pixels
    Height : 510 pixels
    Display aspect ratio : 1.85:1
    Frame rate mode : Constant
    Frame rate : 23.976 fps
    Color space : YUV
    Chroma subsampling : 4:2:0
    Bit depth : 8 bits
    Scan type : Progressive
    Bits/(Pixel*Frame) : 0.142
    Stream size : 1.12 GiB (77%)
    Title : BDRip by AFM [RuTracker.org]
    Writing library : x264 core 148 r2705+54 9f484c1 t_mod_Custom [8-bit@all X86_64]
    Encoding settings : cabac=1 / ref=8 / deblock=1:-2:-2 / analyse=0x3:0x113 / me=umh / subme=10 / psy=1 / fade_compensate=0.00 / psy_rd=1.00:0.00 / mixed_ref=1 / me_range=32 / chroma_me=1 / trellis=2 / 8x8dct=1 / cqm=0 / deadzone=21,11 / fast_pskip=0 / chroma_qp_offset=-2 / threads=6 / lookahead_threads=1 / sliced_threads=0 / nr=0 / decimate=0 / interlaced=0 / bluray_compat=0 / constrained_intra=0 / fgo=0 / bframes=10 / b_pyramid=2 / b_adapt=2 / b_bias=0 / direct=3 / weightb=1 / open_gop=0 / weightp=2 / keyint=250 / keyint_min=23 / scenecut=40 / intra_refresh=0 / rc_lookahead=40 / rc=2pass / mbtree=0 / bitrate=1640 / ratetol=1.0 / qcomp=0.65 / qpmin=0:0:0 / qpmax=69:69:69 / qpstep=4 / cplxblur=20.0 / qblur=0.5 / vbv_maxrate=50000 / vbv_bufsize=62500 / nal_hrd=none / filler=0 / ip_ratio=1.30 / pb_ratio=1.25 / aq=3:0.90 / aq-sensitivity=10.00 / aq-factor=1.00:1.00:1.00 / aq2=0 / aq3=0
    Language : English
    Default : Yes
    Forced : No
    Audio
    ID : 2
    Format : AC-3
    Format/Info : Audio Coding 3
    Mode extension : CM (complete main)
    Format settings, Endianness : Big
    Codec ID : A_AC3
    Duration : 1h 40mn
    Bit rate mode : Constant
    Bit rate : 448 Kbps
    Channel(s) : 6 channels
    Channel positions : Front: L C R, Side: L R, LFE
    Sampling rate : 48.0 KHz
    Compression mode : Lossy
    Stream size : 321 MiB (21%)
    Title : MVO, AC3 5.1 ~448 kbps
    Language : Russian
    Default : Yes
    Forced : No
    Text
    ID : 3
    Format : UTF-8
    Codec ID : S_TEXT/UTF8
    Codec ID/Info : UTF-8 Plain Text
    Title : forced
    Language : Russian
    Default : Yes
    Forced : No
    Menu
    00:00:00.000 : en:Chapter 01
    00:06:01.278 : en:Chapter 02
    00:09:59.682 : en:Chapter 03
    00:15:20.294 : en:Chapter 04
    00:20:57.256 : en:Chapter 05
    00:26:36.303 : en:Chapter 06
    00:31:45.487 : en:Chapter 07
    00:36:00.325 : en:Chapter 08
    00:41:26.484 : en:Chapter 09
    00:47:07.033 : en:Chapter 10
    00:53:44.096 : en:Chapter 11
    01:00:50.105 : en:Chapter 12
    01:08:19.637 : en:Chapter 13
    01:15:04.500 : en:Chapter 14
    01:23:55.197 : en:Chapter 15
    01:30:50.528 : en:Chapter 16

    x264

    x264 [info]: frame I:1553 Avg QP:15.25 size: 55515
    x264 [info]: frame P:33332 Avg QP:17.98 size: 17810
    x264 [info]: frame B:109211 Avg QP:20.53 size: 5060
    x264 [info]: consecutive B-frames: 2.5% 3.8% 8.8% 32.7% 17.2% 21.5% 5.4% 5.6% 1.2% 0.7% 0.6%
    x264 [info]: mb I I16..4: 6.4% 68.7% 24.9%
    x264 [info]: mb P I16..4: 1.4% 7.6% 1.7% P16..4: 42.3% 27.5% 14.0% 0.0% 0.0% skip: 5.6%
    x264 [info]: mb B I16..4: 0.1% 0.4% 0.1% B16..8: 40.2% 11.4% 2.9% direct: 4.1% skip:40.9% L0:41.7% L1:43.4% BI:15.0%
    x264 [info]: 8x8 transform intra:70.1% inter:57.3%
    x264 [info]: direct mvs spatial:98.1% temporal:1.9%
    x264 [info]: coded y,uvDC,uvAC intra: 80.9% 78.6% 56.3% inter: 17.1% 13.1% 6.2%
    x264 [info]: i16 v,h,dc,p: 43% 13% 7% 37%
    x264 [info]: i8 v,h,dc,ddl,ddr,vr,hd,vl,hu: 16% 11% 9% 8% 11% 12% 11% 11% 11%
    x264 [info]: i4 v,h,dc,ddl,ddr,vr,hd,vl,hu: 14% 11% 5% 9% 14% 14% 12% 10% 11%
    x264 [info]: i8c dc,h,v,p: 37% 26% 22% 15%
    x264 [info]: Weighted P-Frames: Y:1.8% UV:1.0%
    x264 [info]: ref P L0: 53.4% 11.5% 15.1% 6.1% 4.7% 3.7% 3.2% 2.2% 0.1% 0.0%
    x264 [info]: ref B L0: 77.1% 10.7% 5.6% 2.8% 2.0% 1.2% 0.5%
    x264 [info]: ref B L1: 94.4% 5.6%
    x264 [info]: kb/s:1640.49

    Скриншоты

    с названием

    Скачать .torrent

    Скачать торрент-файл бесплатно и на максимальной скорости!

    Как скачивать? · Что такое торрент? · Рейтинг и ограничения

    !ВНИМАНИЕ!
    Сайт не распространяет и не хранит электронные версии произведений, а занимается лишь лишь предоставлением доступа к создаваемому пользователями каталогу ссылок на торрент-файлы, которые содержат только списки хеш-сумм, убедительная просьба с жалобами обращаться напрямую к пользователю. Файлы для обмена на трекере предоставлены пользователями сайта, и администрация не несёт ответственности за их содержание. Просьба не заливать файлы, защищенные авторскими правами, а также файлы нелегального содержания!


    _________________
    [Профиль] [ЛС]
    Показать сообщения:    
    Ответить на тему

    Текущее время: Сегодня, в 11:43

    Часовой пояс: GMT + 2



    Вы не можете начинать темы
    Вы не можете отвечать на сообщения
    Вы не можете редактировать свои сообщения
    Вы не можете удалять свои сообщения
    Вы не можете голосовать в опросах
    Вы не можете прикреплять файлы к сообщениям
    Вы не можете скачивать файлы