Register  ·  Log in
Forgot password?

  • Белоснежка и Охотник 2 / The Huntsman: Winter\'s War (Седрик Николя-Троян / Cedric Nicolas-Troyan) [2016, США, фэнтези, драма, приключения, BDRip] [Расширенная версия / Extended Cut] Dub (BD EUR) + Original + Sub (rus, eng)

    Reply to topic
    Author Message


    Post 09-Aug-2016 16:30



    Белоснежка и Охотник 2 / The Huntsman: Winter's War
    Расширенная версия

    Страна: США
    Жанр: фэнтези, боевик, драма, приключения
    Год выпуска: 2016
    Продолжительность: 02:00:10
    Перевод: Профессиональный (дублированный) - (BD EUR)
    Cубтитры: Русские (полные), английские (полные, SDH )
    Оригинальная аудиодорожка: Англиский
    Режиссер: Седрик Николя-Троян / Cedric Nicolas-Troyan
    В ролях: Крис Хемсворт, Шарлиз Терон, Джессика Честейн, Эмили Блант, Ник Фрост, Роб Брайдон, Шеридан Смит, Александра Роуч, Сопе Дирису, Сэм Хэзелдайн
    Описание: Когда любовь уходит, сердце прекрасной девы обращается в лед. И даже сотни королевств не смогут сдержать поступь ее несметного воинства. Лишь Охотник не ведает страха. Сквозь проклятый лес он идет навстречу своей судьбе.
    Качество видео: BDRip
    Формат видео: AVI
    Видео: 720x304 (2.37:1), 23.976 fps, XviD build 65 ~2095 kbps avg, 0.40 bit/pixel
    Аудио RUS: 48 kHz, AC3 Dolby Digital, 3/2 (L,C,R,l,r) + LFE ch, ~448 kbps
    Аудио ENG: 48 kHz, AC3 Dolby Digital, 3/2 (L,C,R,l,r) + LFE ch, ~448 kbps - отдельным файлом
    Формат субтитров: softsub (SRT)

    Rip by Ториял


    Format : AVI
    Format/Info : Audio Video Interleave
    Format profile : OpenDML
    File size : 2.14 GiB
    Duration : 2h 0mn
    Overall bit rate : 2 550 Kbps
    Writing application : VirtualDubMod (build 2540/release)
    Writing library : VirtualDubMod build 2540/release
    ID : 0
    Format : MPEG-4 Visual
    Format profile : Advanced Simple@L5
    Format settings, BVOP : 1
    Format settings, QPel : No
    Format settings, GMC : No warppoints
    Format settings, Matrix : Custom
    Codec ID : XVID
    Codec ID/Hint : XviD
    Duration : 2h 0mn
    Bit rate : 2 090 Kbps
    Width : 720 pixels
    Height : 304 pixels
    Display aspect ratio : 2.35:1
    Frame rate : 23.976 (23976/1000) fps
    Color space : YUV
    Chroma subsampling : 4:2:0
    Bit depth : 8 bits
    Scan type : Progressive
    Compression mode : Lossy
    Bits/(Pixel*Frame) : 0.398
    Stream size : 1.75 GiB (82%)
    Writing library : XviD 65
    ID : 1
    Format : AC-3
    Format/Info : Audio Coding 3
    Mode extension : CM (complete main)
    Format settings, Endianness : Big
    Codec ID : 2000
    Duration : 2h 0mn
    Bit rate mode : Constant
    Bit rate : 448 Kbps
    Channel(s) : 6 channels
    Channel positions : Front: L C R, Side: L R, LFE
    Sampling rate : 48.0 KHz
    Frame rate : 31.250 fps (1536 spf)
    Compression mode : Lossy
    Stream size : 385 MiB (18%)
    Alignment : Split accross interleaves
    Interleave, duration : 42 ms (1.00 video frame)
    Interleave, preload duratio : 500 ms


    Download .torrent

    Download free and at maximum speed!

    How to Download? · What is a torrent? · Ratings and Limitations

    The site does not extend and does not store electronic(digital) versions of products, and only gives access to a reference catalogue created by users on torrent-files which contain only lists of the hash-sums, the earnest entreaty, with complaints(abuse) to access directly to the user. Files for an exchange on tracker are given by users of a site, and the administration does not bear the responsibility for their maintenance. The request to not fill in the files protected by copyrights, and also files of the illegal maintenance!

    [Profile] [PM]
    Display posts from previous:    
    Reply to topic

    The time now is: Today 02:57

    All times are GMT + 3 Hours

    You cannot post new topics in this forum
    You cannot reply to topics in this forum
    You cannot edit your posts in this forum
    You cannot delete your posts in this forum
    You cannot vote in polls in this forum
    You cannot attach files in this forum
    You cannot download files in this forum