Register  ·  Log in
Forgot password?

  • Мачо Мэн / Macho Man (Кристоф Валь / Christof Wahl) [2015, Германия, Мелодрама, комедия, HDRip] DVO

    Reply to topic
    Author Message


    Post 08-Aug-2016 23:48



    Мачо Мэн / Macho Man
    Страна: Германия
    Жанр: Мелодрама, комедия
    Год выпуска: 2015
    Продолжительность: 01:38:38
    Перевод: Профессиональный (двухголосый закадровый)
    Cубтитры: нет
    Оригинальная аудиодорожка: нет
    Режиссер: Кристоф Валь / Christof Wahl
    В ролях: Дар Салим, Айлин Тецель, Нора Чирнер, Владимир Бурлаков, Кристиан Ульмен, Самуэль Финци, Аксель Штайн, Виктория Майер, Ведат Эринчин, Петер Прагер
    Описание: Даниэль — изнеженный цивилизацией бюргер, который не слишком избалован женским вниманием. Но однажды на отдыхе в Турции на него запала сногсшибательная местная красотка. И все бы хорошо, но чтобы жениться на ней и увезти в Германию, он должен произвести правильное впечатление на её семью, а для этого ему придется пройти ускоренный курс, чтобы предстать перед ними настоящим мачо.
    Качество видео: HDRip
    Исходник: [Ma4o.Men.2O15.P.BDRip.1080p]
    Формат видео: AVI
    Видео: 720x304 (2.37:1), 24.000 fps, XviD build 65 ~1915 kbps avg, 0.36 bit/pixel
    Аудио RUS: 48 kHz, AC3 Dolby Digital, 2/0 (L,R) ch, ~192 kbps

    Rip by Ториял


    Format : AVI
    Format/Info : Audio Video Interleave
    File size : 1.46 GiB
    Duration : 1h 38mn
    Overall bit rate : 2 117 Kbps
    Writing application : VirtualDubMod | || (build 2550/release)
    Writing library : VirtualDubMod build 2550/release
    ID : 0
    Format : MPEG-4 Visual
    Format profile : Advanced Simple@L5
    Format settings, BVOP : 1
    Format settings, QPel : No
    Format settings, GMC : No warppoints
    Format settings, Matrix : Custom
    Codec ID : XVID
    Codec ID/Hint : XviD
    Duration : 1h 38mn
    Bit rate : 1 915 Kbps
    Width : 720 pixels
    Height : 304 pixels
    Display aspect ratio : 2.35:1
    Frame rate : 24.000 fps
    Color space : YUV
    Chroma subsampling : 4:2:0
    Bit depth : 8 bits
    Scan type : Progressive
    Compression mode : Lossy
    Bits/(Pixel*Frame) : 0.365
    Stream size : 1.32 GiB (90%)
    Writing library : XviD 65
    ID : 1
    Format : AC-3
    Format/Info : Audio Coding 3
    Mode extension : CM (complete main)
    Format settings, Endianness : Big
    Codec ID : 2000
    Duration : 1h 38mn
    Bit rate mode : Constant
    Bit rate : 192 Kbps
    Channel(s) : 2 channels
    Channel positions : Front: L R
    Sampling rate : 48.0 KHz
    Frame rate : 31.250 fps (1536 spf)
    Compression mode : Lossy
    Stream size : 135 MiB (9%)
    Alignment : Split accross interleaves
    Interleave, duration : 42 ms (1.00 video frame)
    Interleave, preload duratio : 500 ms


    Download .torrent

    Download free and at maximum speed!

    How to Download? · What is a torrent? · Ratings and Limitations

    The site does not extend and does not store electronic(digital) versions of products, and only gives access to a reference catalogue created by users on torrent-files which contain only lists of the hash-sums, the earnest entreaty, with complaints(abuse) to access directly to the user. Files for an exchange on tracker are given by users of a site, and the administration does not bear the responsibility for their maintenance. The request to not fill in the files protected by copyrights, and also files of the illegal maintenance!

    [Profile] [PM]
    Display posts from previous:    
    Reply to topic

    The time now is: Today 11:40

    All times are GMT + 3 Hours

    You cannot post new topics in this forum
    You cannot reply to topics in this forum
    You cannot edit your posts in this forum
    You cannot delete your posts in this forum
    You cannot vote in polls in this forum
    You cannot attach files in this forum
    You cannot download files in this forum