BitTorrentTracker PerecTracker.org
BitTorrentTracker PerecTracker.org
    
Регистрация  ·  Вход
 
 · 
Забыли пароль?

  • Волшебник / The Wizard (Тодд Холлэнд / Todd Holland) [1989, США, драма, комедия, приключения, семейный, WEB-DL 720p] DVO (Ульпаней Эльром) + Sub Eng + Original Eng

    Ответить на тему
     
    Автор Сообщение

    Light

    Создавать темы 08-Авг-2016 18:36

           

    [Цитировать]

    Волшебник / The Wizard
    Страна: США
    Жанр: драма, комедия, приключения, семейный
    Год выпуска: 1989
    Продолжительность: 01:39:59
    Перевод: Профессиональный (двухголосый закадровый) Ульпаней Эльром
    Cубтитры: английские
    Оригинальная аудиодорожка: английский
    Режиссер: Тодд Холлэнд / Todd Holland
    В ролях: Люк Эдвардс, Фред Сэвэдж, Уэнди Филлипс, Винс Транкина, Дея МакАллистер, Сэм МакМюррей, Бо Бриджес, Кристиан Слэйтер, Уилл Зельцер, Рой Конрад...
    Описание: Кори Вудс и его младший брат-аутист Джимми, из-за разлада в семье сбегают из дома и отправляются в большое путешествие через пол страны в Калифорнию. По пути они встречают девчонку-сорванца Холи и узнают о невероятных игровых способностях Джимми! Тут же возникает идея - отправиться на турнир Video Armageddon, национальный чемпионат по видеоиграм. А тем временем за беглецами организована погоня...
    Доп. информация: Звук с раздачи Dexser. Синхронизация звука - Dreven.
    Сэмпл: http://sendfile.su/1255926
    Тип релиза: WEB-DL 720p
    Контейнер: MKV
    Видео: 1280x682 (1.85:1), 23.976 fps, AVC, ~3827 Kbps, 0.183 bits/pixel
    Аудио 1: Russian, 48.0 KHz, AC3, 2 ch, 192 Kbps - Ульпаней Эльром
    Аудио 2: English, 48.0 KHz, AAC LC, 2 ch, 160 Kbps

    MediaInfo

    General
    Unique ID : 225248004594097693645978194234786418767 (0xA975300CDA6CEC0CA572E38704DB904F)
    Complete name : D:\The Wizard. WEB-DL 720p.mkv
    Format : Matroska
    Format version : Version 4 / Version 2
    File size : 2.98 GiB
    Duration : 1h 39mn
    Overall bit rate : 4 263 Kbps
    Movie name :
    Encoded date : UTC 2016-08-07 16:53:29
    Writing application : mkvmerge v9.3.1 ('Mask Machine') 64bit
    Writing library : libebml v1.3.4 + libmatroska v1.4.5
    Video
    ID : 1
    Format : AVC
    Format/Info : Advanced Video Codec
    Format profile : High@L3.1
    Format settings, CABAC : No
    Format settings, ReFrames : 2 frames
    Codec ID : V_MPEG4/ISO/AVC
    Duration : 1h 39mn
    Bit rate : 3 911 Kbps
    Width : 1 280 pixels
    Height : 682 pixels
    Display aspect ratio : 1.85:1
    Frame rate mode : Constant
    Frame rate : 23.976 (23976/1000) fps
    Color space : YUV
    Chroma subsampling : 4:2:0
    Bit depth : 8 bits
    Scan type : Progressive
    Bits/(Pixel*Frame) : 0.187
    Stream size : 2.73 GiB (92%)
    Language : English
    Default : Yes
    Forced : No
    Color range : Limited
    Color primaries : BT.709
    Transfer characteristics : BT.709
    Matrix coefficients : BT.709
    Audio #1
    ID : 2
    Format : AC-3
    Format/Info : Audio Coding 3
    Mode extension : CM (complete main)
    Format settings, Endianness : Big
    Codec ID : A_AC3
    Duration : 1h 39mn
    Bit rate mode : Constant
    Bit rate : 192 Kbps
    Channel(s) : 2 channels
    Channel positions : Front: L R
    Sampling rate : 48.0 KHz
    Frame rate : 31.250 fps (1536 spf)
    Compression mode : Lossy
    Stream size : 137 MiB (5%)
    Title : Ульпаней Эльром
    Language : Russian
    Default : Yes
    Forced : No
    Audio #2
    ID : 3
    Format : AAC
    Format/Info : Advanced Audio Codec
    Format profile : LC
    Codec ID : A_AAC
    Duration : 1h 39mn
    Bit rate : 158 Kbps
    Channel(s) : 2 channels
    Channel positions : Front: L R
    Sampling rate : 48.0 KHz
    Frame rate : 46.875 fps (1024 spf)
    Compression mode : Lossy
    Stream size : 113 MiB (4%)
    Language : English
    Default : No
    Forced : No
    Text
    ID : 4
    Format : UTF-8
    Codec ID : S_TEXT/UTF8
    Codec ID/Info : UTF-8 Plain Text
    Duration : 1h 39mn
    Bit rate : 78 bps
    Count of elements : 1235
    Stream size : 57.0 KiB (0%)
    Language : English
    Default : No
    Forced : No
    Menu
    00:00:00.000 : en:Goin’ to California (Main Titles)
    00:04:02.000 : en:No Appreciation
    00:08:54.000 : en:Hitchin’ a Ride
    00:15:55.000 : en:Winning Ticket
    00:20:13.000 : en:Hot Pursuit
    00:24:42.000 : en:Trucker’s Code
    00:30:41.000 : en:Reno or Bust
    00:34:06.000 : en:Power Play
    00:37:55.000 : en:Bad Debt
    00:45:38.000 : en:Playing Hardball
    00:52:46.000 : en:To Go
    01:02:49.000 : en:Home Sweet Home
    01:06:23.000 : en:Roadside Assistance
    01:11:40.000 : en:Video Armageddon
    01:16:34.000 : en:Run for Your Life
    01:22:59.000 : en:A New Challenge
    01:30:50.000 : en:Saying Goodbye
    01:35:45.000 : en:End Titles

    Скриншоты

    Скачать .torrent

    Скачать торрент-файл бесплатно и на максимальной скорости!

    Как скачивать? · Что такое торрент? · Рейтинг и ограничения

    !ВНИМАНИЕ!
    Сайт не распространяет и не хранит электронные версии произведений, а занимается лишь лишь предоставлением доступа к создаваемому пользователями каталогу ссылок на торрент-файлы, которые содержат только списки хеш-сумм, убедительная просьба с жалобами обращаться напрямую к пользователю. Файлы для обмена на трекере предоставлены пользователями сайта, и администрация не несёт ответственности за их содержание. Просьба не заливать файлы, защищенные авторскими правами, а также файлы нелегального содержания!


    _________________
    [Профиль] [ЛС]
    Показать сообщения:    
    Ответить на тему

    Текущее время: Сегодня, в 00:25

    Часовой пояс: GMT + 2



    Вы не можете начинать темы
    Вы не можете отвечать на сообщения
    Вы не можете редактировать свои сообщения
    Вы не можете удалять свои сообщения
    Вы не можете голосовать в опросах
    Вы не можете прикреплять файлы к сообщениям
    Вы не можете скачивать файлы