BitTorrentTracker PerecTracker.org
BitTorrentTracker PerecTracker.org
    
Регистрация  ·  Вход
 
 · 
Забыли пароль?

  • Белоснежка и Охотник 2 / The Huntsman: Winter\'s War (Седрик Николя-Троян / Cedric Nicolas-Troyan) [2016, США, фэнтези, боевик, драма, приключения, BDRip 720p] [Extended Cut] Dub (Blu-ray EUR) + Original (Eng) + Sub (Rus, Ukr, Eng)

    Ответить на тему
     
    Автор Сообщение

    Light

    Создавать темы 08-Авг-2016 18:36

           

    [Цитировать]

    Белоснежка и Охотник 2 / The Huntsman: Winter's War / Расширенная версия / Extended Cut-Год выпуска: 2016
    Страна: США
    Студия: Universal Pictures
    Жанр: фэнтези, боевик, драма, приключения
    Продолжительность: 02:00:10
    Перевод: Профессиональный (дублированный) Blu-ray EUR / UPI
    Cубтитры: русские, украинские, английские
    Оригинальная аудиодорожка: английский
    -Режиссер: Седрик Николя-Троян / Cedric Nicolas-Troyan-В ролях: Крис Хемсворт, Шарлиз Терон, Джессика Честейн, Эмили Блант, Ник Фрост, Роб Брайдон, Шеридан Смит, Александра Роуч, Сопе Дирису, Сэм Хэзелдайн и другие.-Роли дублировали: Иван Жарков, Алёна Ивченко, Мария Иващенко, Наталья Фищук, Алексей Войтюк, Станислав Тикунов, Полина Щербакова, Анастасия Жаркова, Михаил Данилюк, Сергей Чихачёв, Даниил Эльдаров, Екатерина Виноградова, Василиса Эльдарова, Владимир Антоник, Кирилл Туранский, Константин Карасик, Александра Курагина, Артём Маликов, Варвара Чабан, Василий Стоноженко, Владимир Антипов, Григорий Маликов, Дарья Новосельцева, Ирина Маликова, Олег Новиков, Роман Куперман.-Описание: Когда любовь уходит, сердце прекрасной девы обращается в лед. И даже сотни королевств не смогут сдержать поступь ее несметного воинства. Лишь Охотник не ведает страха. Сквозь проклятый лес он идет навстречу своей судьбе.-РЕЛИЗ ОТ: -Качество: BDRip 720p |VietHD|
    Формат: MKV
    Видео кодек: H.264
    Аудио кодек: AC3, DTS
    Видео: H.264, 1280x536 (2.40:1), 23.976 fps, ~7186 kbps, 0.437 bit/pixel
    Аудио:
    • русская |Blu-ray EUR|: DTS, 48 kHz, 6 ch, 768 kbps
    • английская |Оригинал|: DTS, 48 kHz, 6 ch, 1509 kbps
      английская |Комментарий Седрика Николя-Трояна|: AC3, 48 kHz, 2 ch, 192 kbps
    -Сэмпл \ Кинопоиск-

    Скриншоты

    Media Info

    General
    Unique ID                      : 234470874801235977889714083360557444817 (0xB06572A8B2DAA323B57BBC7E93EF2ED1)
    Complete name                  : E:\Video\HD\Movies (HD)\The Huntsman Winter's War (2016) (BDRip 720p l Extended Cut).mkv
    Format                         : Matroska
    Format version                 : Version 4 / Version 2
    File size                      : 8.27 GiB
    Duration                       : 2h 0mn
    Overall bit rate               : 9 852 Kbps
    Encoded date                   : UTC 2016-08-08 01:37:31
    Writing application            : mkvmerge v8.8.0 ('Wind at my back') 32bit
    Writing library                : libebml v1.3.3 + libmatroska v1.4.4
    DURATION                       : 01:51:16.044000000
    NUMBER_OF_FRAMES               : 1751
    NUMBER_OF_BYTES                : 79891
    _STATISTICS_WRITING_APP        : mkvmerge v8.8.0 ('Wind at my back') 32bit
    _STATISTICS_WRITING_DATE_UTC   : 2016-08-08 01:37:31
    _STATISTICS_TAGS               : BPS DURATION NUMBER_OF_FRAMES NUMBER_OF_BYTES
    Video
    ID                             : 1
    Format                         : AVC
    Format/Info                    : Advanced Video Codec
    Format profile                 : High@L4.1
    Format settings, CABAC         : Yes
    Format settings, ReFrames      : 12 frames
    Codec ID                       : V_MPEG4/ISO/AVC
    Duration                       : 2h 0mn
    Bit rate                       : 7 186 Kbps
    Width                          : 1 280 pixels
    Height                         : 536 pixels
    Display aspect ratio           : 2.40:1
    Frame rate mode                : Constant
    Frame rate                     : 23.976 fps
    Color space                    : YUV
    Chroma subsampling             : 4:2:0
    Bit depth                      : 8 bits
    Scan type                      : Progressive
    Bits/(Pixel*Frame)             : 0.437
    Stream size                    : 6.03 GiB (73%)
    Title                          : Расширенная версия / Extended Cut
    Writing library                : x264 core 148 r2705.16 d50a22e VietHD_Custom_64
    Encoding settings              : cabac=1 / ref=12 / deblock=1:-3:-3 / analyse=0x3:0x133 / me=umh / subme=10 / psy=1 / fade_compensate=0.00 / psy_rd=1.07:0.00 / mixed_ref=1 / me_range=24 / chroma_me=1 / trellis=2 / 8x8dct=1 / cqm=0 / deadzone=21,11 / fast_pskip=0 / chroma_qp_offset=-2 / threads=12 / lookahead_threads=2 / sliced_threads=0 / nr=0 / decimate=0 / interlaced=0 / bluray_compat=0 / constrained_intra=0 / fgo=0 / bframes=8 / b_pyramid=2 / b_adapt=2 / b_bias=0 / direct=3 / weightb=1 / open_gop=0 / weightp=2 / keyint=250 / keyint_min=23 / scenecut=40 / intra_refresh=0 / rc_lookahead=60 / rc=crf / mbtree=0 / crf=15.0000 / qcomp=0.65 / qpmin=0:0:0 / qpmax=69:69:69 / qpstep=4 / vbv_maxrate=62500 / vbv_bufsize=78125 / crf_max=0.0 / nal_hrd=none / filler=0 / ip_ratio=1.30 / pb_ratio=1.20 / aq=3:0.77 / aq-sensitivity=10.00 / aq-factor=1.00:1.00:1.00 / aq2=0 / aq3=0
    Language                       : English
    Default                        : Yes
    Forced                         : No
    Matrix coefficients            : BT.709
    Color range                    : Limited
    DURATION                       : 02:00:10.287000000
    NUMBER_OF_FRAMES               : 172874
    NUMBER_OF_BYTES                : 6645137556
    _STATISTICS_WRITING_APP        : mkvmerge v8.8.0 ('Wind at my back') 32bit
    _STATISTICS_WRITING_DATE_UTC   : 2016-08-08 01:37:31
    _STATISTICS_TAGS               : BPS DURATION NUMBER_OF_FRAMES NUMBER_OF_BYTES
    Audio #1
    ID                             : 2
    Format                         : DTS
    Format/Info                    : Digital Theater Systems
    Mode                           : 16
    Format settings, Endianness    : Big
    Codec ID                       : A_DTS
    Duration                       : 2h 0mn
    Bit rate mode                  : Constant
    Bit rate                       : 768 Kbps
    Channel(s)                     : 6 channels
    Channel positions              : Front: L C R, Side: L R, LFE
    Sampling rate                  : 48.0 KHz
    Bit depth                      : 24 bits
    Compression mode               : Lossy
    Stream size                    : 660 MiB (8%)
    Title                          : DUB (Blu-ray EUR / UPI)
    Language                       : Russian
    Default                        : Yes
    Forced                         : No
    Audio #2
    ID                             : 3
    Format                         : DTS
    Format/Info                    : Digital Theater Systems
    Mode                           : 16
    Format settings, Endianness    : Big
    Codec ID                       : A_DTS
    Duration                       : 2h 0mn
    Bit rate mode                  : Constant
    Bit rate                       : 1 509 Kbps
    Channel(s)                     : 6 channels
    Channel positions              : Front: L C R, Side: L R, LFE
    Sampling rate                  : 48.0 KHz
    Bit depth                      : 24 bits
    Compression mode               : Lossy
    Stream size                    : 1.27 GiB (15%)
    Title                          : Original
    Language                       : English
    Default                        : No
    Forced                         : No
    Audio #3
    ID                             : 4
    Format                         : AC-3
    Format/Info                    : Audio Coding 3
    Format profile                 : Dolby Digital
    Mode extension                 : CM (complete main)
    Format settings, Endianness    : Big
    Codec ID                       : A_AC3
    Duration                       : 2h 0mn
    Bit rate mode                  : Constant
    Bit rate                       : 192 Kbps
    Channel(s)                     : 2 channels
    Channel positions              : Front: L R
    Sampling rate                  : 48.0 KHz
    Bit depth                      : 16 bits
    Compression mode               : Lossy
    Stream size                    : 165 MiB (2%)
    Title                          : Feature Commentary by director Cedric Nicolas-Troyan
    Language                       : English
    Default                        : No
    Forced                         : No
    Text #1
    ID                             : 5
    Format                         : UTF-8
    Codec ID                       : S_TEXT/UTF8
    Codec ID/Info                  : UTF-8 Plain Text
    Title                          : Full (Blu-ray EUR / UPI)
    Language                       : Russian
    Default                        : No
    Forced                         : No
    Text #2
    ID                             : 6
    Format                         : UTF-8
    Codec ID                       : S_TEXT/UTF8
    Codec ID/Info                  : UTF-8 Plain Text
    Title                          : Commentary (Blu-ray EUR / UPI)
    Language                       : Russian
    Default                        : No
    Forced                         : No
    Text #3
    ID                             : 7
    Format                         : UTF-8
    Codec ID                       : S_TEXT/UTF8
    Codec ID/Info                  : UTF-8 Plain Text
    Title                          : Full (Blu-ray EUR / UPI)
    Language                       : Ukrainian
    Default                        : No
    Forced                         : No
    Text #4
    ID                             : 8
    Format                         : UTF-8
    Codec ID                       : S_TEXT/UTF8
    Codec ID/Info                  : UTF-8 Plain Text
    Title                          : Original
    Language                       : English
    Default                        : No
    Forced                         : No
    Text #5
    ID                             : 9
    Format                         : UTF-8
    Codec ID                       : S_TEXT/UTF8
    Codec ID/Info                  : UTF-8 Plain Text
    Title                          : SDH
    Language                       : English
    Default                        : No
    Forced                         : No
    Text #6
    ID                             : 10
    Format                         : UTF-8
    Codec ID                       : S_TEXT/UTF8
    Codec ID/Info                  : UTF-8 Plain Text
    Title                          : Commentary
    Language                       : English
    Default                        : No
    Forced                         : No
    Menu
    00:00:00.000                   : en:00:00:00.000
    00:06:26.428                   : en:00:06:26.428
    00:09:26.858                   : en:00:09:26.858
    00:15:03.194                   : en:00:15:03.194
    00:21:33.501                   : en:00:21:33.501
    00:30:17.858                   : en:00:30:17.858
    00:36:08.166                   : en:00:36:08.166
    00:40:55.661                   : en:00:40:55.661
    00:46:56.439                   : en:00:46:56.439
    00:52:05.748                   : en:00:52:05.748
    00:59:35.530                   : en:00:59:35.530
    01:04:23.943                   : en:01:04:23.943
    01:11:16.689                   : en:01:11:16.689
    01:15:19.223                   : en:01:15:19.223
    01:22:42.833                   : en:01:22:42.833
    01:28:15.206                   : en:01:28:15.206
    01:33:58.007                   : en:01:33:58.007
    01:39:21.956                   : en:01:39:21.956
    01:48:13.904                   : en:01:48:13.904
    01:50:19.571                   : en:01:50:19.571
    -
    Скачать .torrent

    Скачать торрент-файл бесплатно и на максимальной скорости!

    Как скачивать? · Что такое торрент? · Рейтинг и ограничения

    !ВНИМАНИЕ!
    Сайт не распространяет и не хранит электронные версии произведений, а занимается лишь лишь предоставлением доступа к создаваемому пользователями каталогу ссылок на торрент-файлы, которые содержат только списки хеш-сумм, убедительная просьба с жалобами обращаться напрямую к пользователю. Файлы для обмена на трекере предоставлены пользователями сайта, и администрация не несёт ответственности за их содержание. Просьба не заливать файлы, защищенные авторскими правами, а также файлы нелегального содержания!


    _________________
    [Профиль] [ЛС]
    Показать сообщения:    
    Ответить на тему

    Текущее время: Сегодня, в 01:18

    Часовой пояс: GMT + 2



    Вы не можете начинать темы
    Вы не можете отвечать на сообщения
    Вы не можете редактировать свои сообщения
    Вы не можете удалять свои сообщения
    Вы не можете голосовать в опросах
    Вы не можете прикреплять файлы к сообщениям
    Вы не можете скачивать файлы