BitTorrentTracker PerecTracker.org
BitTorrentTracker PerecTracker.org
    
Регистрация  ·  Вход
 
 · 
Забыли пароль?

  • Двое во вселенной / La corrispondenza (Джузеппе Торнаторе / Giuseppe Tornatore) [2016, Италия, драма, мелодрама, BDRip 720p] Dub (НТВ+) + Original (Eng) + Sub (Ita, Eng)

    Ответить на тему
     
    Автор Сообщение

    Light

    Создавать темы 08-Авг-2016 18:36

           

    [Цитировать]

    Двое во вселенной / La corrispondenza-Год выпуска: 2016
    Страна: Италия
    Студия: Isabella Cocuzza Arturo Paglia, RAI Cinema
    Жанр: драма, мелодрама
    Продолжительность: 02:02:07
    Перевод: Профессиональный (дублированный) НТВ+
    Cубтитры: итальянские, английские
    Оригинальная аудиодорожка: английский
    -Режиссер: Джузеппе Торнаторе / Giuseppe Tornatore-В ролях: Джереми Айронс, Ольга Куриленко, Саймон Джонс, Джим Уоррен, Шона МакДональд, Оскар Сандерс, Паоло Калабрези, Анна Савва, Ирина Кара, Сэмми Морено и другие.-Роли дублировали: Игорь Тарадайкин, Татьяна Шитова, Иван Калинин, Диомид Виноградов, Елена Ивасишина, Данила Ефремов, Ольга Кузнецова, Нина Тобилевич, Владимир Антипов, Дмитрий Филимонов, Андрей Казанцев, Никита Прозоровский, Игорь Старосельцев, Пётр Тобилевич, Ирина Маликова, Михаил Тихонов, Владимир Тягичёв, Алина Балахонова, Анастасия Жаркова, Анатолий Пашнин, Андрей Мишутин, Артём Маликов, Иван Жарков, Ирина Виленкина, Любовь Линникова, Мария Борисова, Нина Александрова, Роман Куперман, Сергей Пономарёв, Сергей Чихачёв, Юрий Сазонов.-Описание: Эд и Эми — ученый и студентка, изучающие теорию струн и космических двойников, вселенную и параллельные измерения. Они — родственные души, созданные друг для друга. Их любовь не знает границ и расстояний. Но внезапно Эд исчезает. И все, что у нее остается — это регулярно приходящие от него послания. В какую игру втягивают Эми? Эксперимент ученого, решившего скрыться от мира? Или игру высших сил, посылающих ей любимого в чужих обличьях? Или она продолжает видеть свет погасшей звезды?-РЕЛИЗ ОТ: -Качество: BDRip 720p |SbR|
    Формат: MKV
    Видео кодек: H.264
    Аудио кодек: AC3
    Видео: H.264, 1280x536 (2.40:1), 23.976 fps, ~6610 kbps, 0.402 bit/pixel
    Аудио:
    • русская |НТВ+|: AC3, 48 kHz, 2 ch, 192 kbps
    • английская |Оригинал|: AC3, 48 kHz, 6 ch, 640 kbps
    -Сэмпл \ Кинопоиск-

    Скриншоты

    Media Info

    General
    Unique ID                      : 229294880711663072367881546278687823957 (0xAC809672926ADED7B5693D7B5E9D5855)
    Complete name                  : E:\Video\HD\Movies (HD)\La Corrispondenza (2016) (BDRip 720p).mkv
    Format                         : Matroska
    Format version                 : Version 4 / Version 2
    File size                      : 6.49 GiB
    Duration                       : 2h 2mn
    Overall bit rate               : 7 605 Kbps
    Encoded date                   : UTC 2016-08-08 11:43:34
    Writing application            : mkvmerge v8.8.0 ('Wind at my back') 32bit
    Writing library                : libebml v1.3.3 + libmatroska v1.4.4
    DURATION                       : 01:55:42.186000000
    NUMBER_OF_FRAMES               : 1244
    NUMBER_OF_BYTES                : 45774
    _STATISTICS_WRITING_APP        : mkvmerge v8.8.0 ('Wind at my back') 32bit
    _STATISTICS_WRITING_DATE_UTC   : 2016-08-08 11:43:34
    _STATISTICS_TAGS               : BPS DURATION NUMBER_OF_FRAMES NUMBER_OF_BYTES
    Video
    ID                             : 1
    Format                         : AVC
    Format/Info                    : Advanced Video Codec
    Format profile                 : High@L4.1
    Format settings, CABAC         : Yes
    Format settings, ReFrames      : 12 frames
    Codec ID                       : V_MPEG4/ISO/AVC
    Duration                       : 2h 2mn
    Bit rate                       : 6 622 Kbps
    Width                          : 1 280 pixels
    Height                         : 536 pixels
    Display aspect ratio           : 2.40:1
    Frame rate mode                : Constant
    Frame rate                     : 23.976 fps
    Color space                    : YUV
    Chroma subsampling             : 4:2:0
    Bit depth                      : 8 bits
    Scan type                      : Progressive
    Bits/(Pixel*Frame)             : 0.403
    Stream size                    : 5.65 GiB (87%)
    Writing library                : x264 core 148 r2705+54 9f484c1 t_mod_Custom [8-bit@all X86_64]
    Encoding settings              : cabac=1 / ref=12 / deblock=1:-3:-3 / analyse=0x3:0x133 / me=umh / subme=10 / psy=1 / fade_compensate=0.00 / psy_rd=1.00:0.05 / mixed_ref=1 / me_range=32 / chroma_me=1 / trellis=2 / 8x8dct=1 / cqm=0 / deadzone=21,11 / fast_pskip=0 / chroma_qp_offset=-3 / threads=6 / lookahead_threads=1 / sliced_threads=0 / nr=0 / decimate=1 / interlaced=0 / bluray_compat=0 / constrained_intra=0 / fgo=0 / bframes=8 / b_pyramid=2 / b_adapt=2 / b_bias=0 / direct=3 / weightb=1 / open_gop=0 / weightp=2 / keyint=250 / keyint_min=23 / scenecut=40 / intra_refresh=0 / rc_lookahead=60 / rc=crf / mbtree=0 / crf=16.5000 / qcomp=0.65 / qpmin=0:0:0 / qpmax=69:69:69 / qpstep=4 / vbv_maxrate=62500 / vbv_bufsize=78125 / crf_max=0.0 / nal_hrd=none / filler=0 / ip_ratio=1.30 / pb_ratio=1.20 / aq=1:0.80 / aq-sensitivity=10.00 / aq-factor=1.00:1.00:1.00 / aq2=1:0.70 / aq2-sensitivity=15.00 / aq2-factor=1.00:1.00:1.00 / aq3=1:[0.60:0.60]:[0.60:0.60]:[0.60:0.60]:[0.60:0.60] / aq3-sensitivity=10.00 / aq3-factor=[1.00:1.00]:[1.00:1.00]:[1.00:1.00] / aq3-boundary=192:64:24
    Language                       : English
    Default                        : Yes
    Forced                         : No
    Color primaries                : BT.709
    Transfer characteristics       : BT.709
    Matrix coefficients            : BT.709
    Color range                    : Limited
    DURATION                       : 02:02:07.369000000
    NUMBER_OF_FRAMES               : 175681
    NUMBER_OF_BYTES                : 6199833801
    _STATISTICS_WRITING_APP        : mkvmerge v8.8.0 ('Wind at my back') 32bit
    _STATISTICS_WRITING_DATE_UTC   : 2016-08-08 11:43:34
    _STATISTICS_TAGS               : BPS DURATION NUMBER_OF_FRAMES NUMBER_OF_BYTES
    Audio #1
    ID                             : 2
    Format                         : AC-3
    Format/Info                    : Audio Coding 3
    Mode extension                 : CM (complete main)
    Format settings, Endianness    : Big
    Codec ID                       : A_AC3
    Duration                       : 2h 2mn
    Bit rate mode                  : Constant
    Bit rate                       : 192 Kbps
    Channel(s)                     : 2 channels
    Channel positions              : Front: L R
    Sampling rate                  : 48.0 KHz
    Bit depth                      : 16 bits
    Compression mode               : Lossy
    Stream size                    : 168 MiB (3%)
    Title                          : DUB (НТВ+)
    Language                       : Russian
    Default                        : Yes
    Forced                         : No
    Audio #2
    ID                             : 3
    Format                         : AC-3
    Format/Info                    : Audio Coding 3
    Mode extension                 : CM (complete main)
    Format settings, Endianness    : Big
    Codec ID                       : A_AC3
    Duration                       : 2h 2mn
    Bit rate mode                  : Constant
    Bit rate                       : 640 Kbps
    Channel(s)                     : 6 channels
    Channel positions              : Front: L C R, Side: L R, LFE
    Sampling rate                  : 48.0 KHz
    Bit depth                      : 16 bits
    Compression mode               : Lossy
    Stream size                    : 559 MiB (8%)
    Title                          : Original
    Language                       : English
    Default                        : No
    Forced                         : No
    Text #1
    ID                             : 4
    Format                         : UTF-8
    Codec ID                       : S_TEXT/UTF8
    Codec ID/Info                  : UTF-8 Plain Text
    Language                       : English
    Default                        : No
    Forced                         : No
    Text #2
    ID                             : 5
    Format                         : UTF-8
    Codec ID                       : S_TEXT/UTF8
    Codec ID/Info                  : UTF-8 Plain Text
    Language                       : Italian
    Default                        : No
    Forced                         : No
    Text #3
    ID                             : 6
    Format                         : UTF-8
    Codec ID                       : S_TEXT/UTF8
    Codec ID/Info                  : UTF-8 Plain Text
    Title                          : SDH
    Language                       : Italian
    Default                        : No
    Forced                         : No
    Menu
    00:00:00.000                   : en:00:00:00.000
    00:07:28.156                   : en:00:07:28.156
    00:16:56.349                   : en:00:16:56.349
    00:24:10.991                   : en:00:24:10.991
    00:28:58.737                   : en:00:28:58.737
    00:35:40.972                   : en:00:35:40.972
    00:43:19.555                   : en:00:43:19.555
    00:55:04.134                   : en:00:55:04.134
    01:00:54.025                   : en:01:00:54.025
    01:13:10.845                   : en:01:13:10.845
    01:21:01.982                   : en:01:21:01.982
    01:27:02.759                   : en:01:27:02.759
    01:35:46.449                   : en:01:35:46.449
    01:41:21.117                   : en:01:41:21.117
    01:48:46.520                   : en:01:48:46.520
    01:54:49.341                   : en:01:54:49.341
    -
    Скачать .torrent

    Скачать торрент-файл бесплатно и на максимальной скорости!

    Как скачивать? · Что такое торрент? · Рейтинг и ограничения

    !ВНИМАНИЕ!
    Сайт не распространяет и не хранит электронные версии произведений, а занимается лишь лишь предоставлением доступа к создаваемому пользователями каталогу ссылок на торрент-файлы, которые содержат только списки хеш-сумм, убедительная просьба с жалобами обращаться напрямую к пользователю. Файлы для обмена на трекере предоставлены пользователями сайта, и администрация не несёт ответственности за их содержание. Просьба не заливать файлы, защищенные авторскими правами, а также файлы нелегального содержания!


    _________________
    [Профиль] [ЛС]
    Показать сообщения:    
    Ответить на тему

    Текущее время: Сегодня, в 13:57

    Часовой пояс: GMT + 2



    Вы не можете начинать темы
    Вы не можете отвечать на сообщения
    Вы не можете редактировать свои сообщения
    Вы не можете удалять свои сообщения
    Вы не можете голосовать в опросах
    Вы не можете прикреплять файлы к сообщениям
    Вы не можете скачивать файлы