BitTorrentTracker PerecTracker.org
BitTorrentTracker PerecTracker.org
    
Регистрация  ·  Вход
 
 · 
Забыли пароль?

  • Бронза / The Bronze (Брайан Бакли / Bryan Buckley) [2015, США, драма, комедия, BDRip-AVC] MVO + Original + Sub (rus, eng)

    Ответить на тему
     
    Автор Сообщение

    Light

    Создавать темы 08-Авг-2016 18:36

           

    [Цитировать]

    Бронза / The Bronze«There's no place like third»-Страна: США
    Жанр: драма, комедия
    Год выпуска: 2015
    Продолжительность: 01:40:10
    Перевод: Профессиональный (многоголосый закадровый) (BD EUR)
    Оригинальная аудиодорожка: английский
    Cубтитры: русские (форс., полные), английские (полные, SDH)
    Навигация по главам: есть
    Режиссеры: Брайан Бакли / Bryan Buckley
    В ролях: Мелисса Рауш, Гэри Коул, Томас Миддлдитч, Себастьян Стэн, Сесили Стронг, Хейли Лу Ричардсон, Дэйл Рауль, Крэйг Килборн, Ольга Корбут, Dominique Moceanu
    Описание: Сквернословящая бронзовая медалистка по гимнастике вынуждена бороться за свой статус местной знаменитости, когда в городе появляется новый молодой спортсмен.

    Качество видео: BDRip-AVC (исходник - BDRemux|THE_BRONZE_REMUX_HDCLUB)
    Формат видео: MKV
    Видео: x264, 1104х596 (1.85:1), 23,976 fps, ~2277 kbps, 0.144 bit/pixel
    Аудио 1: 48 kHz, AC3 Dolby Digital, 3/2 (L,C,R,l,r) + LFE ch, ~448 kbps [русский]
    Аудио 2: 48 kHz, AC3 Dolby Digital, 3/2 (L,C,R,l,r) + LFE ch, ~384 kbps [английский]
    Формат субтитров: softsub (SRT)
    MediaInfo | x264 log
    Format : Matroska
    Format version : Version 4 / Version 2
    File size : 2.18 GiB
    Duration : 1h 40mn
    Overall bit rate : 3 112 Kbps
    Movie name : Бронза / The Bronze (2015) :: AFM ::
    Encoded date : UTC 2016-08-07 14:43:55
    Writing application : mkvmerge v8.3.0 ('Over the Horizon') 32bit
    Writing library : libebml v1.3.1 + libmatroska v1.4.2
    Video
    ID : 1
    Format : AVC
    Format/Info : Advanced Video Codec
    Format profile : High@L4.1
    Format settings, CABAC : Yes
    Format settings, ReFrames : 8 frames
    Codec ID : V_MPEG4/ISO/AVC
    Duration : 1h 40mn
    Bit rate : 2 277 Kbps
    Width : 1 104 pixels
    Height : 596 pixels
    Display aspect ratio : 1.85:1
    Frame rate mode : Constant
    Frame rate : 23.976 fps
    Color space : YUV
    Chroma subsampling : 4:2:0
    Bit depth : 8 bits
    Scan type : Progressive
    Bits/(Pixel*Frame) : 0.144
    Stream size : 1.55 GiB (71%)
    Title : BDRip by AFM [RuTracker.org]
    Writing library : x264 core 148 r2705+54 9f484c1 t_mod_Custom [8-bit@all X86_64]
    Encoding settings : cabac=1 / ref=8 / deblock=1:-2:-2 / analyse=0x3:0x113 / me=umh / subme=10 / psy=1 / fade_compensate=0.00 / psy_rd=1.00:0.00 / mixed_ref=1 / me_range=32 / chroma_me=1 / trellis=2 / 8x8dct=1 / cqm=0 / deadzone=21,11 / fast_pskip=0 / chroma_qp_offset=-2 / threads=6 / lookahead_threads=1 / sliced_threads=0 / nr=0 / decimate=0 / interlaced=0 / bluray_compat=0 / constrained_intra=0 / fgo=0 / bframes=10 / b_pyramid=2 / b_adapt=2 / b_bias=0 / direct=3 / weightb=1 / open_gop=0 / weightp=2 / keyint=250 / keyint_min=23 / scenecut=40 / intra_refresh=0 / rc_lookahead=40 / rc=2pass / mbtree=0 / bitrate=2277 / ratetol=1.0 / qcomp=0.65 / qpmin=0:0:0 / qpmax=69:69:69 / qpstep=4 / cplxblur=20.0 / qblur=0.5 / vbv_maxrate=50000 / vbv_bufsize=62500 / nal_hrd=none / filler=0 / ip_ratio=1.30 / pb_ratio=1.25 / aq=3:0.80 / aq-sensitivity=10.00 / aq-factor=1.00:1.00:1.00 / aq2=0 / aq3=0
    Language : English
    Default : Yes
    Forced : No
    Audio #1
    ID : 2
    Format : AC-3
    Format/Info : Audio Coding 3
    Mode extension : CM (complete main)
    Format settings, Endianness : Big
    Codec ID : A_AC3
    Duration : 1h 40mn
    Bit rate mode : Constant
    Bit rate : 448 Kbps
    Channel(s) : 6 channels
    Channel positions : Front: L C R, Side: L R, LFE
    Sampling rate : 48.0 KHz
    Compression mode : Lossy
    Stream size : 321 MiB (14%)
    Title : MVO, AC3 5.1 ~448 kbps
    Language : Russian
    Default : Yes
    Forced : No
    Audio #2
    ID : 3
    Format : AC-3
    Format/Info : Audio Coding 3
    Mode extension : CM (complete main)
    Format settings, Endianness : Big
    Codec ID : A_AC3
    Duration : 1h 40mn
    Bit rate mode : Constant
    Bit rate : 384 Kbps
    Channel(s) : 6 channels
    Channel positions : Front: L C R, Side: L R, LFE
    Sampling rate : 48.0 KHz
    Compression mode : Lossy
    Stream size : 275 MiB (12%)
    Title : Original, AC3 5.1 ~384 kbps
    Language : English
    Default : No
    Forced : No
    Text #1
    ID : 4
    Format : UTF-8
    Codec ID : S_TEXT/UTF8
    Codec ID/Info : UTF-8 Plain Text
    Title : forced
    Language : Russian
    Default : Yes
    Forced : No
    Text #2
    ID : 5
    Format : UTF-8
    Codec ID : S_TEXT/UTF8
    Codec ID/Info : UTF-8 Plain Text
    Language : Russian
    Default : No
    Forced : No
    Text #3
    ID : 6
    Format : UTF-8
    Codec ID : S_TEXT/UTF8
    Codec ID/Info : UTF-8 Plain Text
    Language : English
    Default : No
    Forced : No
    Text #4
    ID : 7
    Format : UTF-8
    Codec ID : S_TEXT/UTF8
    Codec ID/Info : UTF-8 Plain Text
    Title : SDH
    Language : English
    Default : No
    Forced : No
    Menu
    00:00:00.000 : en:Chapter 01
    00:06:01.278 : en:Chapter 02
    00:09:59.682 : en:Chapter 03
    00:15:20.294 : en:Chapter 04
    00:20:57.256 : en:Chapter 05
    00:26:36.303 : en:Chapter 06
    00:31:45.487 : en:Chapter 07
    00:36:00.325 : en:Chapter 08
    00:41:26.484 : en:Chapter 09
    00:47:07.033 : en:Chapter 10
    00:53:44.096 : en:Chapter 11
    01:00:50.105 : en:Chapter 12
    01:08:19.637 : en:Chapter 13
    01:15:04.500 : en:Chapter 14
    01:23:55.197 : en:Chapter 15
    01:30:50.528 : en:Chapter 16

    x264

    x264 [info]: frame I:1504 Avg QP:15.04 size: 73225
    x264 [info]: frame P:33989 Avg QP:17.84 size: 24194
    x264 [info]: frame B:108603 Avg QP:20.36 size: 7169
    x264 [info]: consecutive B-frames: 2.6% 4.0% 10.3% 32.7% 16.2% 21.6% 4.7% 5.7% 1.2% 0.6% 0.4%
    x264 [info]: mb I I16..4: 6.2% 70.7% 23.1%
    x264 [info]: mb P I16..4: 1.1% 7.9% 1.9% P16..4: 42.5% 27.6% 14.0% 0.0% 0.0% skip: 5.0%
    x264 [info]: mb B I16..4: 0.1% 0.5% 0.2% B16..8: 41.4% 11.5% 2.7% direct: 4.0% skip:39.6% L0:42.4% L1:44.0% BI:13.6%
    x264 [info]: 8x8 transform intra:71.0% inter:60.1%
    x264 [info]: direct mvs spatial:98.4% temporal:1.6%
    x264 [info]: coded y,uvDC,uvAC intra: 81.0% 79.5% 55.2% inter: 17.9% 14.3% 6.3%
    x264 [info]: i16 v,h,dc,p: 29% 15% 7% 49%
    x264 [info]: i8 v,h,dc,ddl,ddr,vr,hd,vl,hu: 19% 11% 7% 8% 11% 12% 11% 11% 11%
    x264 [info]: i4 v,h,dc,ddl,ddr,vr,hd,vl,hu: 27% 9% 4% 8% 12% 12% 10% 9% 9%
    x264 [info]: i8c dc,h,v,p: 33% 28% 23% 16%
    x264 [info]: Weighted P-Frames: Y:1.6% UV:1.0%
    x264 [info]: ref P L0: 53.0% 10.7% 15.5% 6.2% 5.1% 3.9% 3.4% 2.2% 0.1% 0.0%
    x264 [info]: ref B L0: 76.7% 10.8% 5.6% 2.8% 2.1% 1.4% 0.5%
    x264 [info]: ref B L1: 94.6% 5.4%
    x264 [info]: kb/s:2277.58

    Скриншоты

    с названием

    Скачать .torrent

    Скачать торрент-файл бесплатно и на максимальной скорости!

    Как скачивать? · Что такое торрент? · Рейтинг и ограничения

    !ВНИМАНИЕ!
    Сайт не распространяет и не хранит электронные версии произведений, а занимается лишь лишь предоставлением доступа к создаваемому пользователями каталогу ссылок на торрент-файлы, которые содержат только списки хеш-сумм, убедительная просьба с жалобами обращаться напрямую к пользователю. Файлы для обмена на трекере предоставлены пользователями сайта, и администрация не несёт ответственности за их содержание. Просьба не заливать файлы, защищенные авторскими правами, а также файлы нелегального содержания!


    _________________
    [Профиль] [ЛС]
    Показать сообщения:    
    Ответить на тему

    Текущее время: Сегодня, в 16:05

    Часовой пояс: GMT + 2



    Вы не можете начинать темы
    Вы не можете отвечать на сообщения
    Вы не можете редактировать свои сообщения
    Вы не можете удалять свои сообщения
    Вы не можете голосовать в опросах
    Вы не можете прикреплять файлы к сообщениям
    Вы не можете скачивать файлы