BitTorrentTracker PerecTracker.org
BitTorrentTracker PerecTracker.org
    
Регистрация  ·  Вход
 
 · 
Забыли пароль?

  • Пеле: Рождение легенды / Pelé: Birth of a Legend (Майкл Цимбалист / Michael Zimbalist ) [2016, США, Драма, биография, спорт, BDRip, HD (720p)] DUB + Original + sub (eng)

    Ответить на тему
     
    Автор Сообщение

    rechyn

    Создавать темы 08-Авг-2016 01:56

           

    [Цитировать]

    Пеле: Рождение легенды / Pelé: Birth of a Legend
    «Мальчик, у которого ничего не было, изменил мир»
    7.672 / 10 7.40 / 10
    -Год выпуска: 2016
    Страна: США
    Жанр: Драма, биография, спорт
    Продолжительность: 01:47:05
    Перевод: Дублированный (iTunes)
    Оригинальная аудиодорожка: Есть
    Cубтитры: Английские
    Режиссёр: Майкл Цимбалист
    Сценарий: Джефф Цимбалист, Майкл Цимбалист
    Продюсер: Брайан Грейзер, Иван Орлич, Ким Рот
    Оператор: Мэттью Либатик
    Композитор: А.Р. Рахман
    Художник: Доминик Уоткинс, Иниш Сальгадо
    Монтаж: Луис Карбальяр, Наоми Джерати, Глен Скэнтлебери
    В ролях: Кевин де Паула, Леонардо Лима Карвальо, Сеу Жоржи, Мариана Нюнс, Милтон Гонсалвис, Сет Майклс, Винсент Д’Онофрио, Андре Маттос, Фил, Рафаэль Энрикес
    Сборы в США: $49 979
    Сборы в России: $49 089
    Мировая премьера: 23 апреля 2016
    Премьера (РФ): 28 июля 2016, «Парадиз»
    Описание: Биографическая драма расскажет о закулисье спорта, в частности о жизни величайшего игрока в истории футбола — Пеле. Зрители станут свидетелями непростой жизни бразильской легенды спорта. Сколько преград тому удалось преодолеть на своем пути, чтобы добиться мировой популярности? Это сейчас он демонстрирует невероятные профессиональные достижения и вдобавок ко всему не забывает о благородных делах, но раньше все было по-другому. С ранних лет Пеле жаждал получить признание, неустанно шел к своей мечте, преодолевая препятствия, тем самым закаляя свой характер. Картина охватывает детство футболиста, вплоть до победы на первом этапе Кубка мира в Швеции, когда Пеле было семнадцать лет. Судьба не всегда была благосклонна к спортсмену, однако за каждой успешной личности стоит огромный труд, железная воля и твердая уверенность в собственных силах.-Качество исходника: BDRemux (HDClub)
    Качество: BDRip
    Тип: HD (720p)
    Контейнер: M4V
    Видео: H.264, 1280x536, 2.40:1, 3 500 Kbps, 23.976 fps
    Аудио 1: Русский/Дублированный (iTunes), AAC / 2.0 / 157 Kbps / 48.0 KHz
    Аудио 2: Английский/Оригинальная дорожка , AAC / 2.0 / 159 Kbps / 48.0 KHz
    Аудио 3: Русский/Дублированный (iTunes), AC-3 / 5.1 / 384 Kbps / 48.0 KHz
    Аудио 4: Английский/Оригинальная дорожка , AC-3 / 5.1 / 640 Kbps / 48.0 KHz
    Субтитры: Английские полные
    -

    iTunes Meta Tags

    Sort Name: Пеле: Рождение легенды
    XID: Apple:vendor_id:2016-803422
    contentID: 1136735053
    Copyright: © 2016 Paradise
    Screenwriters: Джефф Цимбалист, Майкл Цимбалист
    Producers: Брайан Грейзер, Иван Орлич, Ким Рот
    Director: Джефф Цимбалист, Майкл Цимбалист
    Cast: Кевин де Паула, Леонардо Лима Карвальо, Сеу Жоржи, Мариана Нюнс, Милтон Гонсалвис, Сет Майклс, Винсент Д’Онофрио, Андре Маттос, Фил, Рафаэль Энрикес
    Studio: Imagine Entertainment, Seine Pictures , Zohar International
    Rating: 135
    Long Description: Биографическая драма расскажет о закулисье спорта, в частности о жизни величайшего игрока в истории футбола - Пеле. Зрители станут свидетелями непростой жизни бразильской легенды спорта. Сколько преград тому удалось преодолеть на своем пути, чтобы добиться мировой популярности? Это сейчас он демонстрирует невероятные профессиональные достижения и вдобавок ко всему не забывает о благородных делах, но раньше все было по-другому. С ранних лет Пеле жаждал получить признание, неустанно шел к своей мечте, преодолевая препятствия, тем самым закаляя свой характер. Картина охватывает детство футболиста, вплоть до победы на первом этапе Кубка мира в Швеции, когда Пеле было семнадцать лет. Судьба не всегда была благосклонна к спортсмену, однако за каждой успешной личности стоит огромный труд, железная воля и твердая уверенность в собственных силах.
    Description: Биографическая драма расскажет о закулисье спорта, в частности о жизни величайшего игрока в истории футбола - Пеле. Зрители станут свидетелями непростой жизни бразильской легенды спорта. Сколько преград тому удалось преодолеть на своем пути, чтобы добиться мировой популярности?
    Release Date: 2016-04-23T08:00:00Z
    Genre: Драма
    Artist: Джефф Цимбалист & Майкл Цимбалист
    Name: Пеле: Рождение легенды

    MediaInfo

    General
    Complete name : /Users/imac/HandBrake/Pele- Birth of a Legend (720p HD).m4v
    Format : MPEG-4
    Codec ID : M4V
    File size : 3.62 GiB
    Duration : 1h 47mn
    Overall bit rate mode : Variable
    Overall bit rate : 4 840 Kbps
    Movie name : Пеле: Рождение легенды
    Performer : Джефф Цимбалист & Майкл Цимбалист
    Director : Джефф Цимбалист / Майкл Цимбалист
    Actor : Кевин де Паула / Леонардо Лима Карвальо / Сеу Жоржи / Мариана Нюнс / Милтон Гонсалвис / Сет Майклс / Винсент Д’Онофрио / Андре Маттос / Фил / Рафаэль Энрикес
    Screenplay by : Джефф Цимбалист / Майкл Цимбалист
    Producer : Брайан Грейзер / Иван Орлич / Ким Рот
    Production studio : Imagine Entertainment, Seine Pictures , Zohar International
    Genre : Драма
    ContentType : Short Film
    Description : Биографическая драма расскажет о закулисье спорта, в частности о жизни величайшего игрока в истории футбола - Пеле. Зрители станут свидетелями непростой жизни бразильской легенды спорта. Сколько преград тому удалось преодолеть на своем пути, чтобы добиться мировой популярности?
    Recorded date : UTC 2016-04-23 08:00:00
    Encoded date : UTC 2016-08-07 22:27:54
    Tagged date : UTC 2016-08-07 22:29:14
    Copyright : © 2016 Paradise
    Cover : Yes
    Rating : None
    Title/Sort : Пеле: Рождение легенды
    LongDescription : Биографическая драма расскажет о закулисье спорта, в частности о жизни величайшего игрока в истории футбола - Пеле. Зрители станут свидетелями непростой жизни бразильской легенды спорта. Сколько преград тому удалось преодолеть на своем пути, чтобы добиться мировой популярности? Это сейчас он демонстрирует невероятные профессиональные достижения и вдобавок ко всему не забывает о благородных делах, но раньше все было по-другому. С ранних лет Пеле жаждал получить признание, неустанно шел к своей мечте, преодолевая препятствия, тем самым закаляя свой характер. Картина охватывает детство футболиста, вплоть до победы на первом этапе Кубка мира в Швеции, когда Пеле было семнадцать лет. Судьба не всегда была благосклонна к спортсмену, однако за каждой успешной личности стоит огромный труд, железная воля и твердая уверенность в собственных силах.
    HDVideo : Yes
    AppleStoreCatalogID : 1136735053
    Vendor : Apple:vendor_id:2016-803422
    ContentRating : ru-movie|16+|375|
    Video #1
    ID : 1
    Format : AVC
    Format/Info : Advanced Video Codec
    Format profile : High@L3.1
    Format settings, CABAC : No
    Format settings, ReFrames : 3 frames
    Codec ID : avc1
    Codec ID/Info : Advanced Video Coding
    Duration : 1h 47mn
    Source duration : 1h 47mn
    Bit rate : 3 500 Kbps
    Width : 1 280 pixels
    Height : 536 pixels
    Display aspect ratio : 2.40:1
    Frame rate mode : Variable
    Frame rate : 23.976 fps
    Minimum frame rate : 23.810 fps
    Maximum frame rate : 24.246 fps
    Color space : YUV
    Chroma subsampling : 4:2:0
    Bit depth : 8 bits
    Scan type : Progressive
    Bits/(Pixel*Frame) : 0.213
    Stream size : 2.61 GiB (72%)
    Source stream size : 2.61 GiB (72%)
    Title : Main Program
    Writing library : x264 core 142 r2479 dd79a61
    Encoding settings : cabac=0 / ref=3 / deblock=1:-3:-3 / analyse=0x3:0x113 / me=umh / subme=9 / psy=1 / psy_rd=1.00:0.15 / mixed_ref=1 / me_range=32 / chroma_me=1 / trellis=0 / 8x8dct=1 / cqm=0 / deadzone=21,11 / fast_pskip=0 / chroma_qp_offset=-2 / threads=36 / lookahead_threads=3 / sliced_threads=0 / nr=0 / decimate=0 / interlaced=0 / bluray_compat=0 / constrained_intra=0 / bframes=3 / b_pyramid=0 / b_adapt=2 / b_bias=0 / direct=1 / weightb=0 / open_gop=0 / weightp=0 / keyint=240 / keyint_min=24 / scenecut=40 / intra_refresh=0 / rc_lookahead=40 / rc=2pass / mbtree=1 / bitrate=3500 / ratetol=1.0 / qcomp=0.65 / qpmin=0 / qpmax=69 / qpstep=4 / cplxblur=20.0 / qblur=0.5 / vbv_maxrate=9500 / vbv_bufsize=9500 / nal_hrd=none / filler=0 / ip_ratio=1.40 / aq=1:1.10
    Language : English
    Encoded date : UTC 2016-08-07 22:27:54
    Tagged date : UTC 2016-08-07 22:28:00
    Color range : Limited
    Color primaries : BT.709
    Transfer characteristics : BT.709
    Matrix coefficients : BT.709
    Video #2
    ID : 8
    Format : JPEG
    Codec ID : jpeg
    Duration : 1h 47mn
    Bit rate mode : Variable
    Bit rate : 836 bps
    Width : 640 pixels
    Height : 268 pixels
    Display aspect ratio : 2.40:1
    Frame rate mode : Variable
    Frame rate : 0.002 fps
    Minimum frame rate : 0.001 fps
    Maximum frame rate : 0.003 fps
    Color space : YUV
    Chroma subsampling : 4:2:0
    Bit depth : 8 bits
    Compression mode : Lossy
    Bits/(Pixel*Frame) : 2.437
    Stream size : 612 KiB (0%)
    Title : Chapter Images
    Language : English
    Encoded date : UTC 2016-08-07 22:28:39
    Tagged date : UTC 2016-08-07 22:28:39
    Audio #1
    ID : 2
    Format : AAC
    Format/Info : Advanced Audio Codec
    Format profile : LC
    Codec ID : 40
    Duration : 1h 47mn
    Bit rate mode : Variable
    Bit rate : 157 Kbps
    Maximum bit rate : 220 Kbps
    Channel(s) : 2 channels
    Channel positions : Front: L R
    Sampling rate : 48.0 KHz
    Compression mode : Lossy
    Stream size : 120 MiB (3%)
    Title : Russian Stereo
    Language : Russian
    Encoded date : UTC 2016-08-07 22:27:54
    Tagged date : UTC 2016-08-07 22:28:36
    Audio #2
    ID : 3
    Format : AAC
    Format/Info : Advanced Audio Codec
    Format profile : LC
    Codec ID : 40
    Duration : 1h 47mn
    Bit rate mode : Variable
    Bit rate : 159 Kbps
    Maximum bit rate : 262 Kbps
    Channel(s) : 2 channels
    Channel positions : Front: L R
    Sampling rate : 48.0 KHz
    Compression mode : Lossy
    Stream size : 122 MiB (3%)
    Title : English Stereo
    Language : English
    Encoded date : UTC 2016-08-07 22:27:54
    Tagged date : UTC 2016-08-07 22:28:36
    Audio #3
    ID : 4
    Format : AC-3
    Format/Info : Audio Coding 3
    Mode extension : CM (complete main)
    Format settings, Endianness : Big
    Codec ID : ac-3
    Duration : 1h 47mn
    Bit rate mode : Constant
    Bit rate : 384 Kbps
    Channel(s) : 6 channels
    Channel positions : Front: L C R, Side: L R, LFE
    Sampling rate : 48.0 KHz
    Bit depth : 16 bits
    Compression mode : Lossy
    Stream size : 294 MiB (8%)
    Title : Russian DD 5.1
    Language : Russian
    Encoded date : UTC 2016-08-07 22:27:54
    Tagged date : UTC 2016-08-07 22:28:36
    Audio #4
    ID : 5
    Format : AC-3
    Format/Info : Audio Coding 3
    Mode extension : CM (complete main)
    Format settings, Endianness : Big
    Codec ID : ac-3
    Duration : 1h 47mn
    Bit rate mode : Constant
    Bit rate : 640 Kbps
    Channel(s) : 6 channels
    Channel positions : Front: L C R, Side: L R, LFE
    Sampling rate : 48.0 KHz
    Bit depth : 16 bits
    Compression mode : Lossy
    Stream size : 490 MiB (13%)
    Title : English DD 5.1
    Language : English
    Encoded date : UTC 2016-08-07 22:27:54
    Tagged date : UTC 2016-08-07 22:28:36
    Text
    ID : 6
    Format : Timed Text
    Muxing mode : sbtl
    Codec ID : tx3g
    Duration : 1h 40mn
    Bit rate mode : Variable
    Bit rate : 87 bps
    Stream size : 64.6 KiB (0%)
    Title : English full
    Language : English
    Encoded date : UTC 2016-08-07 22:27:54
    Tagged date : UTC 2016-08-07 22:28:34
    Menu #1
    00:00:00.000 : 00:00:00.000
    00:08:37.892 : 00:08:37.809
    00:15:48.239 : 00:15:48.156
    00:27:31.066 : 00:27:30.983
    00:34:55.176 : 00:34:55.093
    00:43:33.653 : 00:43:33.569
    00:53:53.856 : 00:53:53.772
    01:04:19.814 : 01:04:19.731
    01:14:40.393 : 01:14:40.309
    01:21:35.140 : 01:21:35.057
    01:29:41.209 : 01:29:41.001
    01:42:00.156 : 01:42:00.072
    Menu #2
    ID : 7
    Codec ID : text
    Duration : 1h 47mn
    Language : English
    Encoded date : UTC 2016-08-07 22:28:36
    Tagged date : UTC 2016-08-07 22:28:36
    Bit rate mode : CBR
    00:00:00.000 : 00:00:00.000
    00:08:37.892 : 00:08:37.809
    00:15:48.239 : 00:15:48.156
    00:27:31.066 : 00:27:30.983
    00:34:55.176 : 00:34:55.093
    00:43:33.653 : 00:43:33.569
    00:53:53.856 : 00:53:53.772
    01:04:19.814 : 01:04:19.731
    01:14:40.393 : 01:14:40.309
    01:21:35.140 : 01:21:35.057
    01:29:41.209 : 01:29:41.001
    01:42:00.156 : 01:42:00.072

    x264 лог

    x264 [info]: frame I:1878  Avg QP:15.83  size: 94286
    x264 [info]: frame P:67609 Avg QP:18.74  size: 28785
    x264 [info]: frame B:84577 Avg QP:20.68  size:  8033
    x264 [info]: consecutive B-frames: 10.9% 39.3% 25.0% 24.8%
    x264 [info]: mb I  I16..4:  8.8% 53.1% 38.2%
    x264 [info]: mb P  I16..4:  2.4%  7.8%  4.2%  P16..4: 45.6% 22.9%  9.4%  0.0%  0.0%    skip: 7.5%
    x264 [info]: mb B  I16..4:  0.2%  1.1%  0.7%  B16..8: 41.6%  9.9%  1.6%  direct: 3.7%  skip:41.2%  L0:37.8% L1:52.3% BI: 9.9%
    x264 [info]: 8x8 transform intra:53.9% inter:47.6%
    x264 [info]: coded y,uvDC,uvAC intra: 79.2% 76.2% 49.3% inter: 23.8% 20.6% 11.3%
    x264 [info]: i16 v,h,dc,p: 29% 23%  5% 44%
    x264 [info]: i8 v,h,dc,ddl,ddr,vr,hd,vl,hu: 10%  9%  4% 10% 15% 15% 14% 12% 11%
    x264 [info]: i4 v,h,dc,ddl,ddr,vr,hd,vl,hu: 12% 12%  3% 10% 15% 15% 13% 10%  9%
    x264 [info]: i8c dc,h,v,p: 48% 19% 20% 13%
    x264 [info]: ref P L0: 77.1% 13.8%  9.1%
    x264 [info]: ref B L0: 83.4% 16.6%
    x264 [info]: kb/s:3489.21

    Скриншоты

    -

    Релиз подготовлен для просмотра на Apple TV, iPad, iPhone, iPod Touch.
    Для просмотра данного релиза на компьютере с ОС Windows рекомендуется использовать VLC media player
    Скачать .torrent

    Скачать торрент-файл бесплатно и на максимальной скорости!

    Как скачивать? · Что такое торрент? · Рейтинг и ограничения

    !ВНИМАНИЕ!
    Сайт не распространяет и не хранит электронные версии произведений, а занимается лишь лишь предоставлением доступа к создаваемому пользователями каталогу ссылок на торрент-файлы, которые содержат только списки хеш-сумм, убедительная просьба с жалобами обращаться напрямую к пользователю. Файлы для обмена на трекере предоставлены пользователями сайта, и администрация не несёт ответственности за их содержание. Просьба не заливать файлы, защищенные авторскими правами, а также файлы нелегального содержания!


    _________________
    [Профиль] [ЛС]
    Показать сообщения:    
    Ответить на тему

    Текущее время: Сегодня, в 14:10

    Часовой пояс: GMT + 2



    Вы не можете начинать темы
    Вы не можете отвечать на сообщения
    Вы не можете редактировать свои сообщения
    Вы не можете удалять свои сообщения
    Вы не можете голосовать в опросах
    Вы не можете прикреплять файлы к сообщениям
    Вы не можете скачивать файлы