BitTorrentTracker PerecTracker.org
BitTorrentTracker PerecTracker.org
    
Регистрация  ·  Вход
 
 · 
Забыли пароль?

  • Разлом Сан-Андреас / San Andreas (Брэд Пейтон / Brad Peyton) [2015, США, Австралия, Канада, боевик, триллер, драма, BDRip-AVC] Dub + Sub Rus

    Ответить на тему
     
    Автор Сообщение

    Light

    Создавать темы 07-Авг-2016 17:32

           

    [Цитировать]

    Разлом Сан-Андреас / San Andreas-Страна: США, Австралия, Канада | Warner Bros. Pictures
    Жанр: боевик, триллер, драма
    Год выпуска: 2015
    Продолжительность: 01:54:28
    Перевод: Профессиональный (дублированный)
    Cубтитры: русские-Режиссер: Брэд Пейтон / Brad Peyton-В ролях: Дуэйн Джонсон, Карла Гуджино, Александра Даддарио, Йоан Гриффит, Арчи Панджаби, Пол Джаматти, Хьюго Джонстон-Барт, Арт Паркинсон, Уилл Юн Ли, Кайли Миноуг.-Описание: Рэй — пилот спасательного вертолета, который всю свою жизнь помогал другим людям. За все время работы он насмотрелся на множество жутких вещей и не раз оказывался в очень сложных ситуациях. Несмотря на все преграды он спешил на помощь, даже не предполагая, что самое страшное ждет его впереди.
    На Калифорнию обрушивается мощное землетрясение, в результате которого гибнут сотни людей и образовывается огромная трещина в земле. Во всеобщем хаосе Рэю предстоит отыскать свою дочь, но сделать это будет очень непросто. В надежде, что его ребенок все еще жив, он отправляется в смертельно опасное путешествие через весь штат...-Релиз от: HELLYWOOD
    Автор рипа: potroks-Качество видео: BDRip-AVC (SAN_ANDREAS_2015_HDCLUB)
    Формат видео: MKV | Sample
    Видео: 924x384 (2.40:1), 23.976 fps, x264@L4.1 ~1634 kbps avg, 0.19 bit/pixel
    Аудио: 48 kHz, AC3 Dolby Digital, 2/0 (L,R) ch, 192.00 kbps avg | BD CEE
    Субтиты: русские форсированные, русские полные

    Инфо

    Формат : Matroska
    Версия формата : Version 4 / Version 2
    Размер файла : 1,46 Гбайт
    Продолжительность : 1 ч. 54 м.
    Общий поток : 1827 Кбит/сек
    Название фильма : San Andreas (2015) - HELLYWOOD
    Дата кодирования : UTC 2015-09-27 17:59:50
    Программа кодирования : mkvmerge v5.9.0 ('On The Loose') built on Dec 15 2012 16:39:58
    Библиотека кодирования : libebml v1.3.0 + libmatroska v1.4.0
    Видео
    Идентификатор : 1
    Формат : AVC
    Формат/Информация : Advanced Video Codec
    Профиль формата : High@L4.1
    Параметр CABAC формата : Да
    Параметр ReFrames формата : 12 кадров
    Идентификатор кодека : V_MPEG4/ISO/AVC
    Продолжительность : 1 ч. 54 м.
    Битрейт : 1634 Кбит/сек
    Ширина : 924 пикселя
    Высота : 384 пикселя
    Соотношение сторон : 2,40:1
    Режим частоты кадров : Постоянный
    Частота кадров : 23,976 (24000/1001) кадра/сек
    Цветовое пространство : YUV
    Субдискретизация насыщенности : 4:2:0
    Битовая глубина : 8 бит
    Тип развёртки : Прогрессивная
    Бит/(Пиксели*Кадры) : 0.192
    Размер потока : 1,28 Гбайт (88%)
    Заголовок : potroks
    Библиотека кодирования : x264 core 148 r2597M e86f3a1
    Настройки программы : cabac=1 / ref=12 / deblock=1:-2:-2 / analyse=0x3:0x133 / me=umh / subme=11 / psy=1 / psy_rd=1.00:0.00 / mixed_ref=1 / me_range=56 / chroma_me=1 / trellis=2 / 8x8dct=1 / cqm=0 / deadzone=21,11 / fast_pskip=0 / chroma_qp_offset=-2 / threads=10 / lookahead_threads=2 / sliced_threads=0 / nr=0 / decimate=1 / interlaced=0 / bluray_compat=0 / constrained_intra=0 / bframes=13 / b_pyramid=2 / b_adapt=2 / b_bias=0 / direct=3 / weightb=1 / open_gop=0 / weightp=2 / keyint=250 / keyint_min=23 / scenecut=40 / intra_refresh=0 / rc=2pass / mbtree=0 / bitrate=1634 / ratetol=1.0 / qcomp=0.70 / qpmin=0 / qpmax=69 / qpstep=2 / cplxblur=20.0 / qblur=0.5 / ip_ratio=1.40 / pb_ratio=1.30 / aq=1:0.80
    Язык : English
    Default : Да
    Forced : Нет
    Аудио
    Идентификатор : 2
    Формат : AC-3
    Формат/Информация : Audio Coding 3
    Расширение режима : CM (complete main)
    Параметр Endianness формата : Big
    Идентификатор кодека : A_AC3
    Продолжительность : 1 ч. 54 м.
    Вид битрейта : Постоянный
    Битрейт : 192 Кбит/сек
    Каналы : 2 канала
    Расположение каналов : Front: L R
    Частота : 48,0 КГц
    Частота кадров : 31,250 кадров/сек (1536 spf)
    Метод сжатия : С потерями
    Размер потока : 157 Мбайт (11%)
    Заголовок : Dub | DD 2.0 @ 192 kbps - Blu-Ray CEE
    Язык : Russian
    Default : Да
    Forced : Нет
    Текст #1
    Идентификатор : 3
    Формат : UTF-8
    Идентификатор кодека : S_TEXT/UTF8
    Идентификатор кодека/Информация : UTF-8 Plain Text
    Заголовок : Forced
    Язык : Russian
    Default : Да
    Forced : Нет
    Текст #2
    Идентификатор : 4
    Формат : UTF-8
    Идентификатор кодека : S_TEXT/UTF8
    Идентификатор кодека/Информация : UTF-8 Plain Text
    Заголовок : Blu-Ray
    Язык : Russian
    Default : Нет
    Forced : Нет
    Меню
    00:00:00.000 : :(01)00:00:00:000
    00:09:29.944 : :(02)00:09:29:944
    00:18:47.209 : :(03)00:18:47:209
    00:30:10.099 : :(04)00:30:10:099
    00:40:08.823 : :(05)00:40:08:823
    00:50:18.098 : :(06)00:50:18:098
    00:59:44.497 : :(07)00:59:44:497
    01:11:27.366 : :(08)01:11:27:366
    01:19:43.612 : :(09)01:19:43:612
    01:30:40.810 : :(10)01:30:40:810
    01:39:56.490 : :(11)01:39:56:490
    01:47:10.924 : :(12)01:47:10:924

    Скриншоты

    Скачать .torrent

    Скачать торрент-файл бесплатно и на максимальной скорости!

    Как скачивать? · Что такое торрент? · Рейтинг и ограничения

    !ВНИМАНИЕ!
    Сайт не распространяет и не хранит электронные версии произведений, а занимается лишь лишь предоставлением доступа к создаваемому пользователями каталогу ссылок на торрент-файлы, которые содержат только списки хеш-сумм, убедительная просьба с жалобами обращаться напрямую к пользователю. Файлы для обмена на трекере предоставлены пользователями сайта, и администрация не несёт ответственности за их содержание. Просьба не заливать файлы, защищенные авторскими правами, а также файлы нелегального содержания!


    _________________
    [Профиль] [ЛС]
    Показать сообщения:    
    Ответить на тему

    Текущее время: Сегодня, в 18:23

    Часовой пояс: GMT + 2



    Вы не можете начинать темы
    Вы не можете отвечать на сообщения
    Вы не можете редактировать свои сообщения
    Вы не можете удалять свои сообщения
    Вы не можете голосовать в опросах
    Вы не можете прикреплять файлы к сообщениям
    Вы не можете скачивать файлы