BitTorrentTracker PerecTracker.org
BitTorrentTracker PerecTracker.org
    
Регистрация  ·  Вход
 
 · 
Забыли пароль?

  • Мачо Мэн / Macho Man (Кристоф Валь / Christof Wahl) [2015, Германия, Мелодрама, комедия, HDRip] DVO

    Ответить на тему
     
    Автор Сообщение

    Light

    Создавать темы 06-Авг-2016 20:55

           

    [Цитировать]

    Мачо Мэн / Macho Man
    Страна: Германия
    Жанр: Мелодрама, комедия
    Год выпуска: 2015
    Продолжительность: 01:38:38
    Перевод: Профессиональный (двухголосый закадровый)
    Cубтитры: нет
    Режиссер: Кристоф Валь / Christof Wahl
    В ролях: Дар Салим, Айлин Тецель, Нора Чирнер, Владимир Бурлаков, Кристиан Ульмен, Самуэль Финци, Аксель Штайн, Виктория Майер, Ведат Эринчин, Петер Прагер
    Описание: Даниэль — изнеженный цивилизацией бюргер, который не слишком избалован женским вниманием. Но однажды на отдыхе в Турции на него запала сногсшибательная местная красотка. И все бы хорошо, но чтобы жениться на ней и увезти в Германию, он должен произвести правильное впечатление на её семью, а для этого ему придется пройти ускоренный курс, чтобы предстать перед ними настоящим мачо.
    Сэмпл: http://multi-up.com/1112405
    Качество видео: HDRip
    Формат видео: AVI
    Видео: 656x272 (2.40:1), 24 fps, XviD build 73, 925 Kbps
    Аудио: 48.0 kHz, MP3, 2 ch, 128 Kbps-Релиз: MegaPeer-

    MediaInfo

    General
    Complete name : Downloads\Macho.Man.P.2015.HDRip.745MB.MegaPeer.avi
    Format : AVI
    Format/Info : Audio Video Interleave
    File size : 747 MiB
    Duration : 1h 38mn
    Overall bit rate : 1 059 Kbps
    Video #0
    ID : 0
    Format : MPEG-4 Visual
    Format profile : Advanced Simple@L5
    Format settings, BVOP : 1
    Format settings, QPel : No
    Format settings, GMC : No warppoints
    Format settings, Matrix : Custom
    Codec ID : XVID
    Codec ID/Hint : XviD
    Duration : 1h 38mn
    Bit rate : 925 Kbps
    Width : 656 pixels
    Height : 272 pixels
    Display aspect ratio : 2.40:1
    Frame rate : 24.000 fps
    Color space : YUV
    Chroma subsampling : 4:2:0
    Bit depth : 8 bits
    Scan type : Progressive
    Compression mode : Lossy
    Bits/(Pixel*Frame) : 0.216
    Stream size : 653 MiB (87%)
    Writing library : XviD 73
    Audio #1
    ID : 1
    Format : MPEG Audio
    Format version : Version 1
    Format profile : Layer 3
    Mode : Joint stereo
    Mode extension : MS Stereo
    Codec ID : 55
    Codec ID/Hint : MP3
    Duration : 1h 38mn
    Bit rate mode : Constant
    Bit rate : 128 Kbps
    Channel(s) : 2 channels
    Sampling rate : 48.0 KHz
    Compression mode : Lossy
    Stream size : 90.3 MiB (12%)
    Alignment : Aligned on interleaves
    Interleave, duration : 167 ms (4.00 video frames)
    Interleave, preload duration : 216 ms
    Title : P
    Writing library : LAME3.99r
    Encoding settings : -m j -V 4 -q 2 -lowpass 17 -b 128

    Скриншот c названием фильма

    Скриншоты

    Скачать .torrent

    Скачать торрент-файл бесплатно и на максимальной скорости!

    Как скачивать? · Что такое торрент? · Рейтинг и ограничения

    !ВНИМАНИЕ!
    Сайт не распространяет и не хранит электронные версии произведений, а занимается лишь лишь предоставлением доступа к создаваемому пользователями каталогу ссылок на торрент-файлы, которые содержат только списки хеш-сумм, убедительная просьба с жалобами обращаться напрямую к пользователю. Файлы для обмена на трекере предоставлены пользователями сайта, и администрация не несёт ответственности за их содержание. Просьба не заливать файлы, защищенные авторскими правами, а также файлы нелегального содержания!


    _________________
    [Профиль] [ЛС]
    Показать сообщения:    
    Ответить на тему

    Текущее время: Сегодня, в 00:34

    Часовой пояс: GMT + 2



    Вы не можете начинать темы
    Вы не можете отвечать на сообщения
    Вы не можете редактировать свои сообщения
    Вы не можете удалять свои сообщения
    Вы не можете голосовать в опросах
    Вы не можете прикреплять файлы к сообщениям
    Вы не можете скачивать файлы