Register  ·  Log in
Forgot password?

  • Тебе конец! / Ты следующий / You\'re Next (Адам Вингард / Adam Wingard) [2011, США, Великобритания, триллер, ужасы, HDRip] Dub (iTunes)

    Reply to topic
    Author Message


    Post 06-Aug-2016 21:55



    Тебе конец! / Ты следующий / You're Next
    Страна: США, Великобритания
    Жанр: триллер, ужасы
    Год выпуска: 2011
    Продолжительность: 01:34:23
    Перевод : Профессиональный (дублированный) iTunes
    Субтитры: нет
    Оригинальная аудиодорожка: нет
    Режиссер: Адам Вингард / Adam Wingard
    В ролях: Шарни Винсон, Николас Туччи, Венди Гленн, Эй Джей Боуэн, Джо Сванберг, Маргарет Лэни, Эми Саймец, Тай Уэст, Роб Моран, Барбара Крэмптон
    Банда маньяков в звериных масках, вооруженных топорами и арбалетами, вторгается в загородный дом семьи Дэвисон. Жертвы оказываются в западне… Неожиданно среди них находится один достойный противник, способный дать отпор убийцам.
    Семпл/Все раздачи фильма
    Качество видео: HDRip
    Формат видео: AVI
    Видео: 968 Kbps, 640x272, 23.976 fps, XviD
    Аудио: 128 Kbps, 48 KHz, 2 ch, MP3 Дубляж


    Complete name : E:\Youre.Next.2011.avi
    Format : AVI
    Format/Info : Audio Video Interleave
    File size : 746 MiB
    Duration : 1h 34mn
    Overall bit rate : 1 105 Kbps
    Writing application : VirtualDubMod | || (build 2550/release)
    Writing library : VirtualDubMod build 2550/release
    ID : 0
    Format : MPEG-4 Visual
    Format profile : Advanced Simple@L5
    Format settings, BVOP : Yes
    Format settings, QPel : No
    Format settings, GMC : No warppoints
    Format settings, Matrix : Default (MPEG)
    Codec ID : XVID
    Codec ID/Hint : XviD
    Duration : 1h 34mn
    Bit rate : 968 Kbps
    Width : 640 pixels
    Height : 272 pixels
    Display aspect ratio : 2.35:1
    Frame rate : 23.976 fps
    Resolution : 8 bits
    Colorimetry : 4:2:0
    Scan type : Progressive
    Bits/(Pixel*Frame) : 0.232
    Stream size : 653 MiB (88%)
    Writing library : XviD 1.2.0.dev47 (UTC 2006-11-01)
    ID : 1
    Format : MPEG Audio
    Format version : Version 1
    Format profile : Layer 3
    Mode : Joint stereo
    Format_Settings_ModeExtension : MS Stereo
    Codec ID : 55
    Codec ID/Hint : MP3
    Duration : 1h 34mn
    Bit rate mode : Constant
    Bit rate : 128 Kbps
    Channel(s) : 2 channels
    Sampling rate : 48.0 KHz
    Stream size : 86.4 MiB (12%)
    Alignment : Aligned on interleaves
    Interleave, duration : 42 ms (1.00 video frame)
    Interleave, preload duration : 504 ms
    Writing library : LAME3.97


    Download .torrent

    Download free and at maximum speed!

    How to Download? · What is a torrent? · Ratings and Limitations

    The site does not extend and does not store electronic(digital) versions of products, and only gives access to a reference catalogue created by users on torrent-files which contain only lists of the hash-sums, the earnest entreaty, with complaints(abuse) to access directly to the user. Files for an exchange on tracker are given by users of a site, and the administration does not bear the responsibility for their maintenance. The request to not fill in the files protected by copyrights, and also files of the illegal maintenance!

    [Profile] [PM]
    Display posts from previous:    
    Reply to topic

    The time now is: Today 03:53

    All times are GMT + 3 Hours

    You cannot post new topics in this forum
    You cannot reply to topics in this forum
    You cannot edit your posts in this forum
    You cannot delete your posts in this forum
    You cannot vote in polls in this forum
    You cannot attach files in this forum
    You cannot download files in this forum