BitTorrentTracker PerecTracker.org
BitTorrentTracker PerecTracker.org
    
Регистрация  ·  Вход
 
 · 
Забыли пароль?

  • Маленький принц / The Little Prince (Марк Осборн / Mark Osborne) [2016, Франция, Канада, Мультфильм, фэнтези, драма, HDRip] Dub

    Ответить на тему
     
    Автор Сообщение

    Flirldrerve

    Создавать темы 06-Авг-2016 00:08

           

    [Цитировать]

    Маленький принц / The Little Prince
    Страна: Франция, Канада
    Жанр: Мультфильм, фэнтези, драма
    Год выпуска: 2015
    Продолжительность: 01:46:34
    Перевод: Профессиональный (дублированный) BD Rus
    Cубтитры: Русские на надписи (вшитые)
    Режиссер: Марк Осборн / Mark Osborne
    Роли озвучивали: Джефф Бриджес (The Aviator, озвучка), Рэйчел МакАдамс (The Mother, озвучка), Пол Радд (Mr. Prince, озвучка), Марион Котийяр (The Rose, озвучка), Джеймс Франко (The Fox, озвучка), Бенисио Дель Торо (The Snake, озвучка), Рики Джервэйс (The Conceited Man, озвучка), Бад Корт (The King, озвучка), Пол Джаматти (The Academy Teacher, озвучка), Райли Осборн (The Little Prince, озвучка), Альберт Брукс (The Businessman, озвучка), Маккензи Фой (The Little Girl, озвучка)
    Описание: Мир невозможен без фантазии и приключений. По крайней мере в это верит добродушный старик авиатор, по соседству с которым недавно поселилась одна очень педантичная мама со своей прилежной дочкой. Жизнь девочки подчинена строгому учебному плану, в котором время на друзей предусмотрено только следующим летом. Однако этот тщательно выстроенный план трещит по швам, когда в жизнь девочки врывается странный сосед с его невероятными рассказами о Маленьком Принце и далеких звездах. Осталось только починить самолет, и в путь! Так начинается большое путешествие девочки — полное опасностей, волшебства, юмора и настоящей дружбы.
    Релиз от Megapeer

    Качество видео: HDRip (исх. The.Little.Prince.2015.1080p)
    Формат видео: AVI
    Видео: 688x288 (2.39:1), 23.976 fps, XviD build 73 ~844 kbps avg, 0.18 bit/pixel
    Аудио: 48 kHz, MPEG Layer 3, 2 ch, ~128.00 kbps avg

    MediaInfo

    ОбщееПолное имя : D:\загрузки\The.Little.Prince.2015.HDRip.Dub.745MB.MegaPeer.aviФормат : AVIФормат/Информация : Audio Video InterleaveРазмер файла : 745 МбайтПродолжительность : 1 ч. 46 м.Общий поток : 978 Кбит/сек
    ВидеоИдентификатор : 0Формат : MPEG-4 VisualПрофиль формата : Advanced Simple@L5Параметр BVOP формата : 1Параметр QPel формата : НетПараметр GMC формата : Без точки переходаПараметр матрицы формата : ВыборочнаяИдентификатор кодека : XVIDИдентификатор кодека/Подсказка : XviDПродолжительность : 1 ч. 46 м.Битрейт : 844 Кбит/секШирина : 688 пикселейВысота : 288 пикселейСоотношение сторон : 2,40:1Частота кадров : 23,976 (24000/1001) кадра/секЦветовое пространство : YUVСубдискретизация насыщенности : 4:2:0Битовая глубина : 8 битТип развёртки : ПрогрессивнаяМетод сжатия : С потерямиБит/(Пиксели*Кадры) : 0.178Размер потока : 643 Мбайт (86%)Библиотека кодирования : XviD 73
    АудиоИдентификатор : 1Формат : MPEG AudioВерсия формата : Version 1Профиль формата : Layer 3Режим : Joint stereoИдентификатор кодека : 55Идентификатор кодека/Подсказка : MP3Продолжительность : 1 ч. 46 м.Вид битрейта : ПостоянныйБитрейт : 128 Кбит/секКаналы : 2 каналаЧастота : 48,0 КГцМетод сжатия : С потерямиРазмер потока : 97,6 Мбайт (13%)Выравнивание : Соединение по промежуткамПродолжительность промежутка : 167 мс. (4,00 видеокадра)Время предзагрузки промежутка : 216 мс.Заголовок : BD RUSБиблиотека кодирования : LAME3.99rНастройки программы : -m j -V 4 -q 2 -lowpass 17 -b 128

    Скриншоты

    Скачать .torrent

    Скачать торрент-файл бесплатно и на максимальной скорости!

    Как скачивать? · Что такое торрент? · Рейтинг и ограничения

    !ВНИМАНИЕ!
    Сайт не распространяет и не хранит электронные версии произведений, а занимается лишь лишь предоставлением доступа к создаваемому пользователями каталогу ссылок на торрент-файлы, которые содержат только списки хеш-сумм, убедительная просьба с жалобами обращаться напрямую к пользователю. Файлы для обмена на трекере предоставлены пользователями сайта, и администрация не несёт ответственности за их содержание. Просьба не заливать файлы, защищенные авторскими правами, а также файлы нелегального содержания!


    _________________
    [Профиль] [ЛС]
    Показать сообщения:    
    Ответить на тему

    Текущее время: Сегодня, в 04:13

    Часовой пояс: GMT + 2



    Вы не можете начинать темы
    Вы не можете отвечать на сообщения
    Вы не можете редактировать свои сообщения
    Вы не можете удалять свои сообщения
    Вы не можете голосовать в опросах
    Вы не можете прикреплять файлы к сообщениям
    Вы не можете скачивать файлы