BitTorrentTracker PerecTracker.org
BitTorrentTracker PerecTracker.org
    
Регистрация  ·  Вход
 
 · 
Забыли пароль?

  • Охота на гауляйтера / Серии: 1-10 из 10 (Олег Базилов) [2012, драма, военный, WEBRip (1080p)]

    Ответить на тему
     
    Автор Сообщение

    rechyn

    Создавать темы 05-Авг-2016 22:15

           

    [Цитировать]

    Охота на гауляйтера--Год выпуска: 2012
    Производство: "Беларусьфильм, Star Media"
    Жанр: драма, военный
    Продолжительность: 00:50:00
    Субтитры: нет-Режиссёр: Олег Базилов-В ролях:
    Анастасия Заворотнюк, Мария Машкова, Ирина Бякова, Александр Дьяченко, Сергей Белякович, Людмила Чурсина, Лариса Лужина, Андрей Межулис, Уве Йеллинек, Дирк Мартенс, Урсула Готтвальд, Нильс Нелессен, Кристине Кляйн, Данила Кармалин, Анастасия-Мари Цисло, Илья Корень, Владислав Хозянин, Дмитрий Пустильник, Николай Кириченко, Александр Ефремов (II)-Описание:
    Минск 1970 год. Торжественное заседание посвященное награждению комсомола Белорусской ССР орденом Ленина. В президиуме на почетном месте пожилая женщина. Это герой Великой Отечественной войны — Мария Архипова.
    Открыть собрание предоставляется еще одному почетному гостю, Герою Советского Союза Галине Помазан — несмотря на доблестную военную биографию — все еще эффектной, моложавой женщине. Узнав о приезде Галины, курирующий собрание сотрудник госбезопасности приходит в панику — встреча Архиповой с Помазан крайне нежелательна. И на самом деле, во время пафосного рассказа Галины о казни палача белорусского народа — гауляйтера Вильгельма Краубе, Архипова не смогла сдержать гнев и набросилась на докладчицу. Очевидно, что есть еще одна неофициальная версия ликвидации гауляйтера, исполнительницами которой являлись две советские женщины, сестры по оружию, коммунистка Архипова и беспартийная Помазан. Но КГБ тщательно скрывает все правдивые подробности этой операции — несомненно, на то есть серьёзные причины.-Все раздачи сериала-Возраст: 12+-Качество: WEBRip (1080p)
    Формат: MKV
    Видео кодек: AVC
    Аудио кодек: AAC

    Видео: AVC, 1920 х 1080 (16:9), 25,000 кадр/сек, 4 000 Кбит/сек, 0.077 bit/pixel
    Аудио: AAC, 41000 Hz, 192 Kbps, 2 канала
    -

    MediaInfo

    General
    Complete name : D:\Раздачи\Охота на гауляйтера (1-10 серии из 10) WEBRip (1080p).mkv
    Format : MPEG-4
    Format profile : Base Media
    Codec ID : isom (isom/iso2/avc1/mp41)
    File size : 1.49 GiB
    Duration : 50mn 38s
    Overall bit rate : 4 198 Kbps
    Writing application : Lavf54.22.104
    Video
    ID : 1
    Format : AVC
    Format/Info : Advanced Video Codec
    Format profile : High@L4
    Format settings, CABAC : Yes
    Format settings, ReFrames : 3 frames
    Format settings, GOP : M=1, N=75
    Codec ID : avc1
    Codec ID/Info : Advanced Video Coding
    Duration : 50mn 38s
    Bit rate : 4 000 Kbps
    Width : 1 920 pixels
    Height : 1 080 pixels
    Display aspect ratio : 16:9
    Frame rate mode : Constant
    Frame rate : 25.000 fps
    Color space : YUV
    Chroma subsampling : 4:2:0
    Bit depth : 8 bits
    Scan type : Progressive
    Bits/(Pixel*Frame) : 0.077
    Stream size : 1.41 GiB (95%)
    Writing library : x264 core 120
    Encoding settings : cabac=1 / ref=3 / deblock=1:0:0 / analyse=0x3:0x133 / me=umh / subme=7 / psy=1 / psy_rd=1.00:0.00 / mixed_ref=1 / me_range=32 / chroma_me=1 / trellis=2 / 8x8dct=1 / cqm=0 / deadzone=21,11 / fast_pskip=1 / chroma_qp_offset=-2 / threads=12 / sliced_threads=0 / nr=0 / decimate=1 / interlaced=0 / bluray_compat=0 / constrained_intra=0 / bframes=0 / weightp=0 / keyint=75 / keyint_min=26 / scenecut=40 / intra_refresh=0 / rc_lookahead=50 / rc=2pass / mbtree=0 / bitrate=4000 / ratetol=1.0 / qcomp=0.20 / qpmin=10 / qpmax=51 / qpstep=4 / cplxblur=20.0 / qblur=0.5 / vbv_maxrate=5000 / vbv_bufsize=5000 / nal_hrd=none / ip_ratio=1.40 / aq=1:1.00
    Color range : Limited
    Color primaries : BT.709
    Transfer characteristics : BT.709
    Matrix coefficients : BT.709
    Audio
    ID : 2
    Format : AAC
    Format/Info : Advanced Audio Codec
    Format profile : LC
    Codec ID : 40
    Duration : 50mn 38s
    Bit rate mode : Constant
    Bit rate : 192 Kbps
    Channel(s) : 2 channels
    Channel positions : Front: L R
    Sampling rate : 44.1 KHz
    Frame rate : 43.066 fps (1024 spf)
    Compression mode : Lossy
    Stream size : 69.3 MiB (5%)
    Default : Yes
    Alternate group : 1
    -

    Скриншоты сериала


    --
    Скачать .torrent

    Скачать торрент-файл бесплатно и на максимальной скорости!

    Как скачивать? · Что такое торрент? · Рейтинг и ограничения

    !ВНИМАНИЕ!
    Сайт не распространяет и не хранит электронные версии произведений, а занимается лишь лишь предоставлением доступа к создаваемому пользователями каталогу ссылок на торрент-файлы, которые содержат только списки хеш-сумм, убедительная просьба с жалобами обращаться напрямую к пользователю. Файлы для обмена на трекере предоставлены пользователями сайта, и администрация не несёт ответственности за их содержание. Просьба не заливать файлы, защищенные авторскими правами, а также файлы нелегального содержания!


    _________________
    [Профиль] [ЛС]
    Показать сообщения:    
    Ответить на тему

    Текущее время: Сегодня, в 14:27

    Часовой пояс: GMT + 2



    Вы не можете начинать темы
    Вы не можете отвечать на сообщения
    Вы не можете редактировать свои сообщения
    Вы не можете удалять свои сообщения
    Вы не можете голосовать в опросах
    Вы не можете прикреплять файлы к сообщениям
    Вы не можете скачивать файлы