BitTorrentTracker PerecTracker.org
BitTorrentTracker PerecTracker.org
    
Регистрация  ·  Вход
 
 · 
Забыли пароль?

  • Русалочка / Die kleine Meerjungfrau (Ирина Попоу / Irina Popow) [2013, Германия, фэнтези, семейный, HDTV 1080i] MVO + Original Ger

    Ответить на тему
     
    Автор Сообщение

    Light

    Создавать темы 04-Авг-2016 23:17

           

    [Цитировать]

    Русалочка / Die kleine MeerjungfrauЛучшие волшебные сказкиСтрана: Германия
    Жанр: фэнтези, семейный
    Год выпуска: 2013
    Продолжительность: 00:58:32
    Перевод: Профессиональный (многоголосый закадровый) Игмар
    Cубтитры: нет
    Оригинальная аудиодорожка: немецкий
    Режиссер: Ирина Попоу / Irina Popow
    В ролях: Зои Мур, Филипп Данне, Бен Беккер, Мерет Беккер, Кристиан Штейер, Мария Эрих, Rasmus Max Wirth, Björn von der Wellen, Клара Герст, Франциска Брайте
    Описание: По сказке Г.-Х. Андерсена. Русалочка спасает принца от верной смерти и влюбляется в него. Чтобы быть с ним, она должна отказаться от прежней жизни и оставить своего отца и сестер. За помощью Русалочка обращается к таинственной и могущественной морской ведьме, которая требует за свою услугу высокую цену: как только Русалочка коснется земли, она потеряет свой голос и станет нема как рыба, а если принц не влюбится в нее, она превратится в морскую пену.
    Сэмпл: http://sendfile.su/1254900
    Кинопоиск:

    Тип релиза: HDTV 1080i
    Контейнер: TS
    Видео: AVC/H.264, PAL, 1920х1080 (16:9), 25 fps, 9556 Кбит/сек
    Аудио 1: русский, MP2, 48000 Hz, 192 Кбит/сек, 2 ch
    Аудио 2: немецкий, AC3, 48000 Hz, 192 Кбит/сек, 2 ch

    MediaInfo

    Общее
    Идентификатор : 1 (0x1)
    Полное имя : C:\Users\User\Desktop\Die kleine Meerjungfrau.ts
    Формат : MPEG-TS
    Размер файла : 4,28 Гбайт
    Продолжительность : 58 м.
    Режим общего битрейта : Переменный
    Общий поток : 10,5 Мбит/сек
    Максимальный общий битрейт : 35,5 Мбит/сек
    Видео
    Идентификатор : 4113 (0x1011)
    Идентификатор меню : 1 (0x1)
    Формат : AVC
    Формат/Информация : Advanced Video Codec
    Профиль формата : Main@L4.0
    Параметр CABAC формата : Да
    Параметр ReFrames формата : 4 кадра
    Идентификатор кодека : 27
    Продолжительность : 58 м.
    Вид битрейта : Переменный
    Битрейт : 9556 Кбит/сек
    Максимальный битрейт : 40,0 Мбит/сек
    Ширина : 1920 пикселей
    Высота : 1080 пикселей
    Соотношение сторон : 16:9
    Частота кадров : 25,000 кадров/сек
    Цветовое пространство : YUV
    Субдискретизация насыщенности : 4:2:0
    Битовая глубина : 8 бит
    Тип развёртки : Чересстрочная
    Порядок развёртки : Верхнее поле первое
    Бит/(Пиксели*Кадры) : 0.184
    Размер потока : 3,91 Гбайт (91%)
    colour_range : Limited
    Аудио #1
    Идентификатор : 4352 (0x1100)
    Идентификатор меню : 1 (0x1)
    Формат : MPEG Audio
    Версия формата : Version 1
    Профиль формата : Layer 2
    Идентификатор кодека : 4
    Продолжительность : 58 м.
    Вид битрейта : Постоянный
    Битрейт : 192 Кбит/сек
    Каналы : 2 канала
    Частота : 48,0 КГц
    Метод сжатия : С потерями
    Размер потока : 80,4 Мбайт (2%)
    Язык : Russian
    Аудио #2
    Идентификатор : 4353 (0x1101)
    Идентификатор меню : 1 (0x1)
    Формат : AC-3
    Формат/Информация : Audio Coding 3
    Расширение режима : CM (complete main)
    Параметр Endianness формата : Big
    Идентификатор кодека : 129
    Продолжительность : 58 м.
    Вид битрейта : Постоянный
    Битрейт : 192 Кбит/сек
    Каналы : 2 канала
    Расположение каналов : Front: L R
    Частота : 48,0 КГц
    Битовая глубина : 16 бит
    Метод сжатия : С потерями
    Размер потока : 80,4 Мбайт (2%)

    Скриншоты с названием фильма

    Скриншоты

    Скачать .torrent

    Скачать торрент-файл бесплатно и на максимальной скорости!

    Как скачивать? · Что такое торрент? · Рейтинг и ограничения

    !ВНИМАНИЕ!
    Сайт не распространяет и не хранит электронные версии произведений, а занимается лишь лишь предоставлением доступа к создаваемому пользователями каталогу ссылок на торрент-файлы, которые содержат только списки хеш-сумм, убедительная просьба с жалобами обращаться напрямую к пользователю. Файлы для обмена на трекере предоставлены пользователями сайта, и администрация не несёт ответственности за их содержание. Просьба не заливать файлы, защищенные авторскими правами, а также файлы нелегального содержания!


    _________________
    [Профиль] [ЛС]
    Показать сообщения:    
    Ответить на тему

    Текущее время: Сегодня, в 07:51

    Часовой пояс: GMT + 2



    Вы не можете начинать темы
    Вы не можете отвечать на сообщения
    Вы не можете редактировать свои сообщения
    Вы не можете удалять свои сообщения
    Вы не можете голосовать в опросах
    Вы не можете прикреплять файлы к сообщениям
    Вы не можете скачивать файлы