BitTorrentTracker PerecTracker.org
BitTorrentTracker PerecTracker.org
    
Регистрация  ·  Вход
 
 · 
Забыли пароль?

  • Мобильник / Cell (Тод Уильямс / Tod Williams) [2016, США, Ужасы, фантастика, триллер, WEB-DLRip] Dub (iTunes)

    Ответить на тему
     
    Автор Сообщение

    rechyn

    Создавать темы 04-Авг-2016 23:17

           

    [Цитировать]

    Мобильник / Cell
    Страна: США
    Жанр: Ужасы, фантастика, триллер
    Год выпуска: 2016
    Продолжительность: 01:38:06
    Перевод: Профессиональный (дублированный) iTunes
    Cубтитры: нет
    Режиссер: Тод Уильямс / Tod Williams
    В ролях: Оуэн Тиг, Сэмюэл Л. Джексон, Джон Кьюсак, Изабель Фурман, Стейси Кич, Джошуа Микель, Ллойд Кауфман, Алекс тер Авест, Майкл Бисли, Гриффин Фриман
    Описание: Художник-график Клэйтон Ридделл становится свидетелем разрушительного действия некоего опасного импульса, исходящего от сотовых телефонов. Попавшие под его влияние люди превращаются в безумцев, становятся кровожадными монстрами, и скорость распространения этой заразы невероятно высока, сохранить человеческий облик удается лишь единицам. В компании нескольких незараженных герой отправляется на поиски своей жены и сына, чтобы выяснить, удалось ли спастись его семье
    Сэмпл: http://multi-up.com/1112246
    Качество видео: WEB-DLRip (Исходник WEB-DL 720p)
    Формат видео: AVI
    Видео: XviD 73, 688x288, (2,40:1), 23,976 fps, 930 Кбит/с, 8 бит
    Аудио: Русский (МР3, 2 ch, 48,0 KHz, 128 Kbps)

    MediaInfo

    Общее
    Полное имя : F:\Видеофильмы\В и д е о\Мобильник (ужасы фантастика 2016г).avi
    Формат : AVI
    Формат/Информация : Audio Video Interleave
    Размер файла : 746 Мбайт
    Продолжительность : 1 ч. 38 м.
    Общий поток : 1064 Кбит/сек
    Видео
    Идентификатор : 0
    Формат : MPEG-4 Visual
    Профиль формата : Advanced Simple@L5
    Параметр BVOP формата : 1
    Параметр QPel формата : Нет
    Параметр GMC формата : Без точки перехода
    Параметр матрицы формата : Выборочная
    Идентификатор кодека : XVID
    Идентификатор кодека/Подсказка : XviD
    Продолжительность : 1 ч. 38 м.
    Битрейт : 930 Кбит/сек
    Ширина : 688 пикселей
    Высота : 288 пикселей
    Соотношение сторон : 2,40:1
    Частота кадров : 23,976 (24000/1001) кадра/сек
    Цветовое пространство : YUV
    Субдискретизация насыщенности : 4:2:0
    Битовая глубина : 8 бит
    Тип развёртки : Прогрессивная
    Метод сжатия : С потерями
    Бит/(Пиксели*Кадры) : 0.196
    Размер потока : 652 Мбайт (87%)
    Библиотека кодирования : XviD 73
    Аудио
    Идентификатор : 1
    Формат : MPEG Audio
    Версия формата : Version 1
    Профиль формата : Layer 3
    Режим : Joint stereo
    Расширение режима : MS Stereo
    Идентификатор кодека : 55
    Идентификатор кодека/Подсказка : MP3
    Продолжительность : 1 ч. 38 м.
    Вид битрейта : Постоянный
    Битрейт : 128 Кбит/сек
    Каналы : 2 канала
    Частота : 48,0 КГц
    Метод сжатия : С потерями
    Размер потока : 89,8 Мбайт (12%)
    Выравнивание : Соединение по промежуткам
    Продолжительность промежутка : 167 мс. (4,00 видеокадра)
    Время предзагрузки промежутка : 216 мс.
    Заголовок : iTunes
    Библиотека кодирования : LAME3.99r
    Настройки программы : -m j -V 4 -q 2 -lowpass 17 -b 128

    Скриншот c названием фильма

    Скриншоты

    Скачать .torrent

    Скачать торрент-файл бесплатно и на максимальной скорости!

    Как скачивать? · Что такое торрент? · Рейтинг и ограничения

    !ВНИМАНИЕ!
    Сайт не распространяет и не хранит электронные версии произведений, а занимается лишь лишь предоставлением доступа к создаваемому пользователями каталогу ссылок на торрент-файлы, которые содержат только списки хеш-сумм, убедительная просьба с жалобами обращаться напрямую к пользователю. Файлы для обмена на трекере предоставлены пользователями сайта, и администрация не несёт ответственности за их содержание. Просьба не заливать файлы, защищенные авторскими правами, а также файлы нелегального содержания!


    _________________
    [Профиль] [ЛС]
    Показать сообщения:    
    Ответить на тему

    Текущее время: Сегодня, в 18:14

    Часовой пояс: GMT + 2



    Вы не можете начинать темы
    Вы не можете отвечать на сообщения
    Вы не можете редактировать свои сообщения
    Вы не можете удалять свои сообщения
    Вы не можете голосовать в опросах
    Вы не можете прикреплять файлы к сообщениям
    Вы не можете скачивать файлы