BitTorrentTracker PerecTracker.org
BitTorrentTracker PerecTracker.org
    
Регистрация  ·  Вход
 
 · 
Забыли пароль?

  • Бронза / The Bronze (Брайан Бакли / Bryan Buckley) [2015, США, драма, комедия, BDRip] MVO (iTunes )

    Ответить на тему
     
    Автор Сообщение

    Light

    Создавать темы 04-Авг-2016 10:41

           

    [Цитировать]

    Бронза / The Bronze
    Страна: США
    Жанр: драма, комедия
    Год выпуска: 2015
    Продолжительность: 01:40:10
    Перевод: Профессиональный (многоголосый закадровый) - iTunes
    Cубтитры: нет
    Оригинальная аудиодорожка: нет-Режиссер: Брайан Бакли / Bryan Buckley-В ролях: Мелисса Рауш, Гэри Коул, Томас Миддлдитч, Себастьян Стэн, Сесили Стронг, Хейли Лу Ричардсон, Дэйл Рауль, Крэйг Килборн, Ольга Корбут, Dominique Moceanu-Описание: Сквернословящая бронзовая медалистка по гимнастике вынуждена бороться за свой статус местной знаменитости, когда в городе появляется новый молодой спортсмен.-Качество видео: BDRip | The Bronze (2015) 1080p BD-Remux HDCLub
    Формат видео: AVI
    Видео: 720x384 (1.88:1), 23.976 fps, XviD build 73 ~1699 kbps avg, 0.26 bit/pixel
    Аудио: 48 kHz, AC3 Dolby Digital, 3/2 (L,C,R,l,r) + LFE ch, ~384 kbps-

    MediaInfo

    Format                      : AVI
    Format/Info                 : Audio Video Interleave
    File size                   : 1.46 GiB
    Duration                    : 1h 40mn
    Overall bit rate            : 2 093 Kbps
    Writing application         : VirtualDubMod 1.5.10.3 | www.virtualdub-fr.org || (build 2550/release)
    Writing library             : VirtualDubMod build 2550/release
    Video
    ID                          : 0
    Format                      : MPEG-4 Visual
    Format profile              : Advanced Simple@L5
    Format settings, BVOP       : 1
    Format settings, QPel       : No
    Format settings, GMC        : No warppoints
    Format settings, Matrix     : Custom
    Codec ID                    : XVID
    Codec ID/Hint               : XviD
    Duration                    : 1h 40mn
    Bit rate                    : 1 700 Kbps
    Width                       : 720 pixels
    Height                      : 384 pixels
    Display aspect ratio        : 1.85:1
    Frame rate                  : 23.976 (23976/1000) fps
    Color space                 : YUV
    Chroma subsampling          : 4:2:0
    Bit depth                   : 8 bits
    Scan type                   : Progressive
    Compression mode            : Lossy
    Bits/(Pixel*Frame)          : 0.256
    Stream size                 : 1.19 GiB (81%)
    Writing library             : XviD 73
    Audio
    ID                          : 1
    Format                      : AC-3
    Format/Info                 : Audio Coding 3
    Mode extension              : CM (complete main)
    Format settings, Endianness : Big
    Codec ID                    : 2000
    Duration                    : 1h 40mn
    Bit rate mode               : Constant
    Bit rate                    : 384 Kbps
    Channel(s)                  : 6 channels
    Channel positions           : Front: L C R, Side: L R, LFE
    Sampling rate               : 48.0 KHz
    Frame rate                  : 31.250 fps (1536 spf)
    Compression mode            : Lossy
    Stream size                 : 275 MiB (18%)
    Alignment                   : Split accross interleaves
    Interleave, duration        : 42 ms (1.00 video frame)
    Interleave, preload duratio : 500 ms

    Скриншоты

    Скачать .torrent

    Скачать торрент-файл бесплатно и на максимальной скорости!

    Как скачивать? · Что такое торрент? · Рейтинг и ограничения

    !ВНИМАНИЕ!
    Сайт не распространяет и не хранит электронные версии произведений, а занимается лишь лишь предоставлением доступа к создаваемому пользователями каталогу ссылок на торрент-файлы, которые содержат только списки хеш-сумм, убедительная просьба с жалобами обращаться напрямую к пользователю. Файлы для обмена на трекере предоставлены пользователями сайта, и администрация не несёт ответственности за их содержание. Просьба не заливать файлы, защищенные авторскими правами, а также файлы нелегального содержания!


    _________________
    [Профиль] [ЛС]
    Показать сообщения:    
    Ответить на тему

    Текущее время: Сегодня, в 07:02

    Часовой пояс: GMT + 2



    Вы не можете начинать темы
    Вы не можете отвечать на сообщения
    Вы не можете редактировать свои сообщения
    Вы не можете удалять свои сообщения
    Вы не можете голосовать в опросах
    Вы не можете прикреплять файлы к сообщениям
    Вы не можете скачивать файлы