BitTorrentTracker PerecTracker.org
BitTorrentTracker PerecTracker.org
    
Регистрация  ·  Вход
 
 · 
Забыли пароль?

  • [ATV3] Варкрафт / Warcraft (Дункан Джонс / Duncan Jones ) [2016, США, Китай, Канада, Япония , Фэнтези, боевик, приключения, WEB-DL, HD (1080p)] DUB + Original

    Ответить на тему
     
    Автор Сообщение

    rechyn

    Создавать темы 04-Авг-2016 06:29

           

    [Цитировать]

    Варкрафт / Warcraft
    «Два мира - одна судьба»
    7.961 / 10 7.40 / 10
    -Год выпуска: 2016
    Страна: США, Китай, Канада, Япония
    Жанр: Фэнтези, боевик, приключения
    Продолжительность: 02:03:06
    Перевод: Дублированный (iTunes)
    Оригинальная аудиодорожка: Есть
    Cубтитры: Нет
    Режиссёр: Дункан Джонс
    Сценарий: Чарльз Ливитт, Дункан Джонс
    Продюсер: Стюарт Фенеган, Алекс Гартнер, Джон Дж. Джашни
    Оператор: Саймон Дагган
    Композитор: Рамин Джавади
    Художник: Гэвин Боке, Дэн Хермансен, Хелен Джарвис
    Монтаж: Пол Хирш
    В ролях: Трэвис Фиммел, Пола Пэттон, Бен Фостер, Доминик Купер, Тоби Кеббелл, Бен Шнетцер, Роберт Казински, Клэнси Браун, Дэниэл Ву, Рут Негга
    Бюджет: $160 000 000
    Сборы в США: $47 225 655
    Сборы в мире: + $385 800 000 = $433 025 655
    Сборы в России: $23 266 264
    Мировая премьера: 24 мая 2016
    Премьера (РФ): 26 мая 2016, «UPI»
    Описание: Веками магия и неприступные стены защищали людей от любых напастей. Но древнее зло, побежденное и забытое тысячелетия назад, пробудилось. В самом сердце королевства открылся темный портал, и раса невиданных существ наводнила земли Азерота. Так начались события, призванные навсегда изменить судьбу этого мира.-Качество исходника: WEB-DL 1080p (BlueBird)
    Качество: WEB-DL
    Тип: HD (1080p)
    Контейнер: M4V
    Видео: H.264, 1916x784, 2.40:1, 4 501 Kbps, 23.976 fps
    Аудио 1: Русский/Дублированный (iTunes), AAC / 2.0 / 157 Kbps / 48.0 KHz
    Аудио 2: Английский/Оригинальная дорожка , AAC / 2.0 / 158 Kbps / 48.0 KHz
    Аудио 3: Русский/Дублированный (iTunes), AC-3 / 5.1 / 384 Kbps / 48.0 KHz
    -

    iTunes Meta Tags

    Sort Name: Warcraft
    XID: Apple:vendor_id:2016-277328
    contentID: 1112365515
    Copyright: © 2016 Universal Studios. All Rights Reserved.
    Screenwriters: Чарльз Ливитт, Дункан Джонс
    Producers: Стюарт Фенеган, Алекс Гартнер, Джон Дж. Джашни
    Director: Дункан Джонс
    Cast: Трэвис Фиммел, Пола Пэттон, Бен Фостер, Доминик Купер, Тоби Кеббелл, Бен Шнетцер, Роберт Казински, Клэнси Браун, Дэниэл Ву, Рут Негга, Илья Исаев, Марьяна Спивак, Иван Калинин, Александр Гаврилин, Андрей Казанцев
    Studio: Universal Pictures
    Rating: 4
    Long Description: Веками магия и неприступные стены защищали людей от любых напастей. Но древнее зло, побежденное и забытое тысячелетия назад, пробудилось.
    В самом сердце королевства открылся темный портал, и раса невиданных существ наводнила земли Азерота. Так начались события, призванные навсегда изменить судьбу этого мира.
    Description: Веками магия и неприступные стены защищали людей от любых напастей. Но древнее зло, побежденное и забытое тысячелетия назад, пробудилось.
    В самом сердце королевства открылся темный портал, и раса невиданных существ наводнила земли Азерота. Так начались события, призванные навсегда изменить судьбу этого мира.
    Release Date: 2016-05-24T08:00:00Z
    Genre: Action & Adventure
    Artist: Duncan Jones
    Name: Warcraft

    MediaInfo

    General
    Complete name : /Users/imac/HandBrake/Warcraft.WEB-DL.1080p.m4v
    Format : MPEG-4
    Codec ID : M4V
    File size : 4.48 GiB
    Duration : 2h 3mn
    Overall bit rate mode : Variable
    Overall bit rate : 5 208 Kbps
    Movie name : Warcraft
    Performer : Duncan Jones
    Director : Дункан Джонс
    Actor : Трэвис Фиммел / Пола Пэттон / Бен Фостер / Доминик Купер / Тоби Кеббелл / Бен Шнетцер / Роберт Казински / Клэнси Браун / Дэниэл Ву / Рут Негга / Илья Исаев / Марьяна Спивак / Иван Калинин / Александр Гаврилин / Андрей Казанцев
    Screenplay by : Чарльз Ливитт / Дункан Джонс
    Producer : Стюарт Фенеган / Алекс Гартнер / Джон Дж. Джашни
    Production studio : Universal Pictures
    Genre : Action & Adventure
    ContentType : Short Film
    Description : Веками магия и неприступные стены защищали людей от любых напастей. Но древнее зло, побежденное и забытое тысячелетия назад, пробудилось. / В самом сердце королевства открылся темный портал, и раса невиданных существ наводнила земли Азерота. Так начались события, призванные навсегда изменить судьбу этого мира.
    Recorded date : UTC 2016-05-24 08:00:00
    Encoded date : UTC 2016-08-03 22:24:04
    Tagged date : UTC 2016-08-03 22:25:04
    Copyright : © 2016 Universal Studios. All Rights Reserved.
    Cover : Yes
    Rating : None
    Title/Sort : Warcraft
    LongDescription : Веками магия и неприступные стены защищали людей от любых напастей. Но древнее зло, побежденное и забытое тысячелетия назад, пробудилось. / В самом сердце королевства открылся темный портал, и раса невиданных существ наводнила земли Азерота. Так начались события, призванные навсегда изменить судьбу этого мира.
    AppleStoreCatalogID : 1112365515
    Vendor : Apple:vendor_id:2016-277328
    ContentRating : mpaa|PG-13|300|
    Video #1
    ID : 1
    Format : AVC
    Format/Info : Advanced Video Codec
    Format profile : High@L4
    Format settings, CABAC : Yes
    Format settings, ReFrames : 5 frames
    Codec ID : avc1
    Codec ID/Info : Advanced Video Coding
    Duration : 2h 3mn
    Bit rate : 4 501 Kbps
    Width : 1 916 pixels
    Height : 784 pixels
    Display aspect ratio : 2.40:1
    Frame rate mode : Variable
    Frame rate : 23.976 fps
    Minimum frame rate : 23.810 fps
    Maximum frame rate : 24.390 fps
    Color space : YUV
    Chroma subsampling : 4:2:0
    Bit depth : 8 bits
    Scan type : Progressive
    Bits/(Pixel*Frame) : 0.125
    Stream size : 3.87 GiB (86%)
    Title : Main Program
    Language : English
    Encoded date : UTC 2016-08-03 22:24:04
    Tagged date : UTC 2016-08-03 22:24:12
    Color range : Limited
    Color primaries : BT.709
    Transfer characteristics : BT.709
    Matrix coefficients : BT.709
    Video #2
    ID : 6
    Format : JPEG
    Codec ID : jpeg
    Duration : 2h 3mn
    Bit rate mode : Variable
    Bit rate : 1 184 bps
    Width : 640 pixels
    Height : 261 pixels
    Display aspect ratio : 2.452
    Frame rate mode : Variable
    Frame rate : 0.003 fps
    Minimum frame rate : 0.002 fps
    Maximum frame rate : 0.006 fps
    Color space : YUV
    Chroma subsampling : 4:2:0
    Bit depth : 8 bits
    Compression mode : Lossy
    Bits/(Pixel*Frame) : 2.363
    Stream size : 963 KiB (0%)
    Title : Chapter Images
    Language : English
    Encoded date : UTC 2016-08-03 22:24:22
    Tagged date : UTC 2016-08-03 22:24:22
    Audio #1
    ID : 2
    Format : AAC
    Format/Info : Advanced Audio Codec
    Format profile : LC
    Codec ID : 40
    Duration : 2h 3mn
    Bit rate mode : Variable
    Bit rate : 157 Kbps
    Maximum bit rate : 220 Kbps
    Channel(s) : 2 channels
    Channel positions : Front: L R
    Sampling rate : 48.0 KHz
    Compression mode : Lossy
    Stream size : 138 MiB (3%)
    Title : Russian Stereo
    Language : Russian
    Encoded date : UTC 2016-08-03 22:24:04
    Tagged date : UTC 2016-08-03 22:24:14
    Audio #2
    ID : 3
    Format : AAC
    Format/Info : Advanced Audio Codec
    Format profile : LC
    Codec ID : 40
    Duration : 2h 1mn
    Bit rate mode : Variable
    Bit rate : 158 Kbps
    Maximum bit rate : 213 Kbps
    Channel(s) : 2 channels
    Channel positions : Front: L R
    Sampling rate : 48.0 KHz
    Compression mode : Lossy
    Stream size : 137 MiB (3%)
    Title : English Stereo
    Language : English
    Encoded date : UTC 2016-08-03 22:24:04
    Tagged date : UTC 2016-08-03 22:24:13
    Audio #3
    ID : 4
    Format : AC-3
    Format/Info : Audio Coding 3
    Mode extension : CM (complete main)
    Format settings, Endianness : Big
    Codec ID : ac-3
    Duration : 2h 3mn
    Bit rate mode : Constant
    Bit rate : 384 Kbps
    Channel(s) : 6 channels
    Channel positions : Front: L C R, Side: L R, LFE
    Sampling rate : 48.0 KHz
    Bit depth : 16 bits
    Compression mode : Lossy
    Stream size : 338 MiB (7%)
    Title : Russian DD 5.1
    Language : Russian
    Encoded date : UTC 2016-08-03 22:24:04
    Tagged date : UTC 2016-08-03 22:24:12
    Menu #1
    00:00:00.000 : глава 1
    00:09:27.000 : глава 2
    00:15:51.000 : глава 3
    00:22:38.000 : глава 4
    00:29:18.000 : глава 5
    00:38:44.000 : глава 6
    00:46:45.000 : глава 7
    00:53:04.000 : глава 8
    00:56:19.000 : глава 9
    01:02:45.000 : глава 10
    01:07:50.000 : глава 11
    01:12:26.000 : глава 12
    01:17:14.000 : глава 13
    01:22:47.000 : глава 14
    01:26:34.000 : глава 15
    01:32:31.000 : глава 16
    01:40:23.000 : глава 17
    01:47:38.000 : глава 18
    01:51:13.000 : глава 19
    01:53:59.000 : глава 20
    Menu #2
    ID : 5
    Codec ID : text
    Duration : 2h 3mn
    Language : English
    Encoded date : UTC 2016-08-03 22:24:14
    Tagged date : UTC 2016-08-03 22:24:14
    00:00:00.000 : глава 1
    00:09:27.000 : глава 2
    00:15:51.000 : глава 3
    00:22:38.000 : глава 4
    00:29:18.000 : глава 5
    00:38:44.000 : глава 6
    00:46:45.000 : глава 7
    00:53:04.000 : глава 8
    00:56:19.000 : глава 9
    01:02:45.000 : глава 10
    01:07:50.000 : глава 11
    01:12:26.000 : глава 12
    01:17:14.000 : глава 13
    01:22:47.000 : глава 14
    01:26:34.000 : глава 15
    01:32:31.000 : глава 16
    01:40:23.000 : глава 17
    01:47:38.000 : глава 18
    01:51:13.000 : глава 19
    01:53:59.000 : глава 20
    Bit rate mode : VBR

    Скриншоты

    -

    Релиз подготовлен для просмотра на Apple TV, iPad, iPhone, iPod Touch.
    Для просмотра данного релиза на компьютере с ОС Windows рекомендуется использовать VLC media player
    Скачать .torrent

    Скачать торрент-файл бесплатно и на максимальной скорости!

    Как скачивать? · Что такое торрент? · Рейтинг и ограничения

    !ВНИМАНИЕ!
    Сайт не распространяет и не хранит электронные версии произведений, а занимается лишь лишь предоставлением доступа к создаваемому пользователями каталогу ссылок на торрент-файлы, которые содержат только списки хеш-сумм, убедительная просьба с жалобами обращаться напрямую к пользователю. Файлы для обмена на трекере предоставлены пользователями сайта, и администрация не несёт ответственности за их содержание. Просьба не заливать файлы, защищенные авторскими правами, а также файлы нелегального содержания!


    _________________
    [Профиль] [ЛС]
    Показать сообщения:    
    Ответить на тему

    Текущее время: Сегодня, в 06:16

    Часовой пояс: GMT + 2



    Вы не можете начинать темы
    Вы не можете отвечать на сообщения
    Вы не можете редактировать свои сообщения
    Вы не можете удалять свои сообщения
    Вы не можете голосовать в опросах
    Вы не можете прикреплять файлы к сообщениям
    Вы не можете скачивать файлы