BitTorrentTracker PerecTracker.org
BitTorrentTracker PerecTracker.org
    
Регистрация  ·  Вход
 
 · 
Забыли пароль?

  • Ведьма / The VVitch: A New-England Folktale (Роберт Эггерс / Robert Eggers) [2015, США, Великобритания, Канада, Бразилия, ужасы, детектив, BDRip 1080p] Dub (CEE) + Original Eng + Sub (Rus, Eng, Eng SDH)

    Ответить на тему
     
    Автор Сообщение

    Light

    Создавать темы 04-Авг-2016 02:24

           

    [Цитировать]

    Ведьма / The VVitch: A New-England Folktale-Год выпуска: 2015
    Выпущено: США, Великобритания, Канада, Бразилия
    Жанр: ужасы, детектив
    Продолжительность: 01:32:32
    Перевод: Профессиональный (полное дублирование) CEE
    Оригинальная звуковая дорожка: English
    Субтитры: Russian (Blu-ray CEE), English, English (SDH)-Режиссер: Роберт Эггерс / Robert Eggers
    В ролях: Аня Тейлор-Джой, Ралф Айнесон, Кейт Дики, Харви Скримшо, Элли Грэйнджер, Лукас Доусон, Джулиан Ричингс, Батшеба Гарнетт, Сара Стефенс, Вахаб Каудхри
    О фильме: Семья колонистов покидает плантацию, чтобы жить на уединенной ферме рядом с лесом в Новой Англии. Но вскоре младший ребёнок, ещё младенец, исчезает.
    SbR!
    Релиз:
    Тип релиза: BDRip 1080p
    Формат: MKV
    Видео: 1798x1080 at 23.976 fps, x264@L4.1, ~14.5 Mbps avg
    Аудио #01: Russian: 48 kHz, DTS, 3/2 (L,C,R,l,r) + LFE ch, ~768.00 kbps avg |Дубляж, Blu-ray CEE|
    Аудио #02: English: 48 kHz, DTS, 3/2 (L,C,R,l,r) + LFE ch, ~1536.00 kbps avg
    Семпл-

    Source vs Encode







    -

    mInfo

    Формат : Matroska
    Версия формата : Version 4 / Version 2
    Размер файла : 10,8 Гбайт
    Продолжительность : 1 ч. 32 м.
    Общий поток : 16,8 Мбит/сек
    Дата кодирования : UTC 2016-07-29 05:32:30
    Программа кодирования : mkvmerge v9.3.1 ('Mask Machine') 32bit
    Библиотека кодирования : libebml v1.3.4 + libmatroska v1.4.5
    Attachements : cover.jpg
    DURATION : 01:26:46.201000000
    NUMBER_OF_FRAMES : 1054
    NUMBER_OF_BYTES : 29534
    _STATISTICS_WRITING_APP : mkvmerge v9.3.1 ('Mask Machine') 32bit
    _STATISTICS_WRITING_DATE_UTC : 2016-07-29 05:32:30
    _STATISTICS_TAGS : BPS DURATION NUMBER_OF_FRAMES NUMBER_OF_BYTES
    Видео
    Идентификатор : 1
    Формат : AVC
    Формат/Информация : Advanced Video Codec
    Профиль формата : High@L4.1
    Параметр CABAC формата : Да
    Параметр ReFrames формата : 4 кадра
    Идентификатор кодека : V_MPEG4/ISO/AVC
    Продолжительность : 1 ч. 32 м.
    Битрейт : 14,5 Мбит/сек
    Ширина : 1798 пикселей
    Высота : 1080 пикселей
    Соотношение сторон : 1,665
    Режим частоты кадров : Постоянный
    Частота кадров : 23,976 кадра/сек
    Цветовое пространство : YUV
    Субдискретизация насыщенности : 4:2:0
    Битовая глубина : 8 бит
    Тип развёртки : Прогрессивная
    Бит/(Пиксели*Кадры) : 0.311
    Размер потока : 9,15 Гбайт (84%)
    Библиотека кодирования : x264 core 148 r2705+54 9f484c1 t_mod_Custom [8-bit@all X86_64]
    Настройки программы : cabac=1 / ref=4 / deblock=1:-3:-3 / analyse=0x3:0x133 / me=umh / subme=10 / psy=1 / fade_compensate=0.00 / psy_rd=1.10:0.05 / mixed_ref=1 / me_range=32 / chroma_me=1 / trellis=2 / 8x8dct=1 / cqm=0 / deadzone=21,11 / fast_pskip=0 / chroma_qp_offset=-3 / threads=6 / lookahead_threads=1 / sliced_threads=0 / nr=0 / decimate=1 / interlaced=0 / bluray_compat=0 / constrained_intra=0 / fgo=0 / bframes=8 / b_pyramid=2 / b_adapt=2 / b_bias=0 / direct=3 / weightb=1 / open_gop=0 / weightp=2 / keyint=250 / keyint_min=23 / scenecut=40 / intra_refresh=0 / rc=2pass / mbtree=0 / bitrate=14500 / ratetol=1.0 / qcomp=0.70 / qpmin=0:0:0 / qpmax=69:69:69 / qpstep=4 / cplxblur=20.0 / qblur=0.5 / ip_ratio=1.30 / pb_ratio=1.20 / aq=1:0.65 / aq-sensitivity=10.00 / aq-factor=1.00:1.00:1.00 / aq2=1:0.60 / aq2-sensitivity=15.00 / aq2-factor=1.00:1.00:1.00 / aq3=1:[0.50:0.50]:[0.50:0.50]:[0.50:0.50]:[0.50:0.50] / aq3-sensitivity=10.00 / aq3-factor=[1.00:1.00]:[1.00:1.00]:[1.00:1.00] / aq3-boundary=192:64:24
    Язык : English
    Default : Да
    Forced : Нет
    Коэффициенты матрицы : BT.709
    colour_range : Limited
    DURATION : 01:32:32.845000000
    NUMBER_OF_FRAMES : 133135
    NUMBER_OF_BYTES : 10058548938
    _STATISTICS_WRITING_APP : mkvmerge v9.3.1 ('Mask Machine') 32bit
    _STATISTICS_WRITING_DATE_UTC : 2016-07-29 05:32:30
    _STATISTICS_TAGS : BPS DURATION NUMBER_OF_FRAMES NUMBER_OF_BYTES
    Аудио #1
    Идентификатор : 2
    Формат : DTS
    Формат/Информация : Digital Theater Systems
    Режим : 16
    Параметр Endianness формата : Big
    Идентификатор кодека : A_DTS
    Продолжительность : 1 ч. 32 м.
    Вид битрейта : Постоянный
    Битрейт : 768 Кбит/сек
    Каналы : 6 каналов
    Расположение каналов : Front: L C R, Side: L R, LFE
    Частота : 48,0 КГц
    Битовая глубина : 24 бит
    Метод сжатия : С потерями
    Размер потока : 508 Мбайт (5%)
    Заголовок : Дубляж
    Язык : Russian
    Default : Да
    Forced : Нет
    Аудио #2
    Идентификатор : 3
    Формат : DTS
    Формат/Информация : Digital Theater Systems
    Режим : 16
    Параметр Endianness формата : Big
    Идентификатор кодека : A_DTS
    Продолжительность : 1 ч. 32 м.
    Вид битрейта : Постоянный
    Битрейт : 1509 Кбит/сек
    Каналы : 6 каналов
    Расположение каналов : Front: L C R, Side: L R, LFE
    Частота : 48,0 КГц
    Битовая глубина : 24 бит
    Метод сжатия : С потерями
    Размер потока : 999 Мбайт (9%)
    Язык : English
    Default : Нет
    Forced : Нет
    Текст #1
    Идентификатор : 4
    Формат : UTF-8
    Идентификатор кодека : S_TEXT/UTF8
    Идентификатор кодека/Информация : UTF-8 Plain Text
    Язык : Russian
    Default : Нет
    Forced : Нет
    Текст #2
    Идентификатор : 5
    Формат : UTF-8
    Идентификатор кодека : S_TEXT/UTF8
    Идентификатор кодека/Информация : UTF-8 Plain Text
    Язык : English
    Default : Нет
    Forced : Нет
    Текст #3
    Идентификатор : 6
    Формат : UTF-8
    Идентификатор кодека : S_TEXT/UTF8
    Идентификатор кодека/Информация : UTF-8 Plain Text
    Язык : English
    Default : Нет
    Forced : Нет
    Меню
    00:00:00.000 : en:00:00:00.000
    00:04:58.715 : en:00:04:58.715
    00:09:48.004 : en:00:09:48.004
    00:13:26.889 : en:00:13:26.889
    00:19:06.228 : en:00:19:06.228
    00:22:33.060 : en:00:22:33.060
    00:26:55.614 : en:00:26:55.614
    00:30:53.602 : en:00:30:53.602
    00:34:46.251 : en:00:34:46.251
    00:37:25.702 : en:00:37:25.702
    00:42:28.546 : en:00:42:28.546
    00:48:38.290 : en:00:48:38.290
    00:53:38.424 : en:00:53:38.424
    01:00:50.605 : en:01:00:50.605
    01:04:28.114 : en:01:04:28.114
    01:10:41.988 : en:01:10:41.988
    01:14:09.987 : en:01:14:09.987
    01:19:46.865 : en:01:19:46.865
    01:23:15.240 : en:01:23:15.240
    01:28:02.611 : en:01:28:02.611
    -
    Скачать .torrent

    Скачать торрент-файл бесплатно и на максимальной скорости!

    Как скачивать? · Что такое торрент? · Рейтинг и ограничения

    !ВНИМАНИЕ!
    Сайт не распространяет и не хранит электронные версии произведений, а занимается лишь лишь предоставлением доступа к создаваемому пользователями каталогу ссылок на торрент-файлы, которые содержат только списки хеш-сумм, убедительная просьба с жалобами обращаться напрямую к пользователю. Файлы для обмена на трекере предоставлены пользователями сайта, и администрация не несёт ответственности за их содержание. Просьба не заливать файлы, защищенные авторскими правами, а также файлы нелегального содержания!


    _________________
    [Профиль] [ЛС]
    Показать сообщения:    
    Ответить на тему

    Текущее время: Сегодня, в 00:39

    Часовой пояс: GMT + 2



    Вы не можете начинать темы
    Вы не можете отвечать на сообщения
    Вы не можете редактировать свои сообщения
    Вы не можете удалять свои сообщения
    Вы не можете голосовать в опросах
    Вы не можете прикреплять файлы к сообщениям
    Вы не можете скачивать файлы