BitTorrentTracker PerecTracker.org
BitTorrentTracker PerecTracker.org
    
Регистрация  ·  Вход
 
 · 
Забыли пароль?

  • Безумная свадьба / Serial (Bad) Weddings / Qu\'est-ce qu\'on a fait au Bon Dieu? (Филипп де Шоврон / Philippe de Chauveron) [2014, Франция, комедия, BDRip 1080p] Dub + Sub Rus + Original Fre

    Ответить на тему
     
    Автор Сообщение

    Light

    Создавать темы 04-Авг-2016 02:24

           

    [Цитировать]

    Безумная свадьба / Serial (Bad) Weddings / Qu'est-ce qu'on a fait au Bon Dieu?
    Страна: Франция
    Студия: Les films du 24, TF1 Droits Audiovisuels, TF1 Films Production
    Жанр: комедия
    Год выпуска: 2014
    Продолжительность: 01:36:50
    Перевод: Профессиональный (дублированный) Blu-ray RUS
    Cубтитры: русские (форсированные), русские (полные)
    Оригинальная аудиодорожка: французский
    Режиссер: Филипп де Шоврон / Philippe de Chauveron
    В ролях: Кристиан Клавье, Шанталь Лоби, Эри Абиттан, Меди Садун, Фредерик Шо, Нум Дьявара, Фредерик Бель, Джулия Пьятон, Эмили Кан, Элоди Фонтан
    Описание: Главные герои фильма, мсье Верней и его жена – добропорядочная буржуазная французская супружеская пара, родители четырех красавиц-дочерей. Как известно, основная проблема всех подобных семей – выдать дочек замуж, чтобы не засиделись в девках. У семейства Верней такой проблемы нет. Три дочери уже нашли свое счастье, вот только мужья, по мнению родителей, подкачали: один – китаец, другой – араб, третий – еврей… Пришло время, и четвертая дочь сообщает радостную весть: она тоже выходит замуж! И ее жених… чернокожий.- -Сэмпл: https://yadi.sk/i/wLh9i7xetr8Zt
    Тип релиза: BDRip 1080p [SbR]
    Контейнер: MKV
    Видео: h.264, 1920x1040, 24.000 fps, 12000 kbps
    Аудио #1: Russian: AC3 5.1, 48 kHz, 640 kbps avg |Дубляж|
    Аудио #2: French: AC3 5.1, 48 kHz, 640 kbps avg |Оригинал|
    Формат субтитров: softsub (SRT)

    MediaInfo

    Complete name : E:\Qu'est-ce.qu'on.a.fait.au.Bon.Dieu.2014.1080p.BluRay.Rus.Fre.HDCLUB-SbR.mkv
    Format : Matroska
    Format version : Version 4 / Version 2
    File size : 8.98 GiB
    Duration : 1h 36mn
    Overall bit rate : 13.3 Mbps
    Encoded date : UTC 2016-07-30 04:32:04
    Writing application : mkvmerge v9.3.1 ('Mask Machine') 32bit
    Writing library : libebml v1.3.4 + libmatroska v1.4.5
    Cover : Yes
    Attachments : cover.jpg
    Video
    ID : 1
    Format : AVC
    Format/Info : Advanced Video Codec
    Format profile : High@L4.1
    Format settings, CABAC : Yes
    Format settings, ReFrames : 4 frames
    Codec ID : V_MPEG4/ISO/AVC
    Duration : 1h 36mn
    Bit rate : 12.0 Mbps
    Width : 1 920 pixels
    Height : 1 040 pixels
    Display aspect ratio : 1.85:1
    Frame rate mode : Constant
    Frame rate : 24.000 fps
    Color space : YUV
    Chroma subsampling : 4:2:0
    Bit depth : 8 bits
    Scan type : Progressive
    Bits/(Pixel*Frame) : 0.250
    Stream size : 8.11 GiB (90%)
    Writing library : x264 core 148 r2705+54 9f484c1 t_mod_Custom [8-bit@all X86_64]
    Encoding settings : cabac=1 / ref=4 / deblock=1:-3:-3 / analyse=0x3:0x133 / me=umh / subme=10 / psy=1 / fade_compensate=0.00 / psy_rd=1.10:0.05 / mixed_ref=1 / me_range=32 / chroma_me=1 / trellis=2 / 8x8dct=1 / cqm=0 / deadzone=21,11 / fast_pskip=0 / chroma_qp_offset=-3 / threads=6 / lookahead_threads=1 / sliced_threads=0 / nr=0 / decimate=1 / interlaced=0 / bluray_compat=0 / constrained_intra=0 / fgo=0 / bframes=8 / b_pyramid=2 / b_adapt=2 / b_bias=0 / direct=3 / weightb=1 / open_gop=0 / weightp=2 / keyint=250 / keyint_min=23 / scenecut=40 / intra_refresh=0 / rc=2pass / mbtree=0 / bitrate=12000 / ratetol=1.0 / qcomp=0.60 / qpmin=0:0:0 / qpmax=69:69:69 / qpstep=4 / cplxblur=20.0 / qblur=0.5 / ip_ratio=1.30 / pb_ratio=1.20 / aq=1:0.80 / aq-sensitivity=10.00 / aq-factor=1.00:1.00:1.00 / aq2=1:0.70 / aq2-sensitivity=15.00 / aq2-factor=1.00:1.00:1.00 / aq3=1:[0.60:0.60]:[0.60:0.60]:[0.60:0.60]:[0.60:0.60] / aq3-sensitivity=10.00 / aq3-factor=[1.00:1.00]:[1.00:1.00]:[1.00:1.00] / aq3-boundary=192:64:24
    Language : English
    Default : Yes
    Forced : No
    Color range : Limited
    Matrix coefficients : BT.709
    Audio #1
    ID : 2
    Format : AC-3
    Format/Info : Audio Coding 3
    Mode extension : CM (complete main)
    Format settings, Endianness : Big
    Codec ID : A_AC3
    Duration : 1h 36mn
    Bit rate mode : Constant
    Bit rate : 640 Kbps
    Channel(s) : 6 channels
    Channel positions : Front: L C R, Side: L R, LFE
    Sampling rate : 48.0 KHz
    Frame rate : 31.250 fps (1536 spf)
    Compression mode : Lossy
    Stream size : 443 MiB (5%)
    Language : Russian
    Default : Yes
    Forced : No
    Audio #2
    ID : 3
    Format : AC-3
    Format/Info : Audio Coding 3
    Mode extension : CM (complete main)
    Format settings, Endianness : Big
    Codec ID : A_AC3
    Duration : 1h 36mn
    Bit rate mode : Constant
    Bit rate : 640 Kbps
    Channel(s) : 6 channels
    Channel positions : Front: L C R, Side: L R, LFE
    Sampling rate : 48.0 KHz
    Frame rate : 31.250 fps (1536 spf)
    Compression mode : Lossy
    Stream size : 443 MiB (5%)
    Language : French
    Default : No
    Forced : No
    Text #1
    ID : 4
    Format : UTF-8
    Codec ID : S_TEXT/UTF8
    Codec ID/Info : UTF-8 Plain Text
    Duration : 5s 708ms
    Bit rate : 177 bps
    Count of elements : 2
    Stream size : 127 Bytes (0%)
    Language : Russian
    Default : Yes
    Forced : No
    Text #2
    ID : 5
    Format : UTF-8
    Codec ID : S_TEXT/UTF8
    Codec ID/Info : UTF-8 Plain Text
    Duration : 1h 32mn
    Bit rate : 139 bps
    Count of elements : 1555
    Stream size : 95.0 KiB (0%)
    Language : Russian
    Default : No
    Forced : No
    Menu
    00:00:00.000 : en:00:00:00.000
    00:02:25.000 : en:00:02:25.000
    00:06:04.500 : en:00:06:04.500
    00:15:15.500 : en:00:15:15.500
    00:21:46.000 : en:00:21:46.000
    00:25:49.500 : en:00:25:49.500
    00:37:54.000 : en:00:37:54.000
    00:44:29.000 : en:00:44:29.000
    00:48:22.500 : en:00:48:22.500
    00:53:50.000 : en:00:53:50.000
    00:59:17.000 : en:00:59:17.000
    01:04:17.500 : en:01:04:17.500
    01:14:52.500 : en:01:14:52.500
    01:27:05.000 : en:01:27:05.000
    01:29:23.000 : en:01:29:23.000
    01:33:28.500 : en:01:33:28.500

    Source vs Encode




    Скриншоты

    Скачать .torrent

    Скачать торрент-файл бесплатно и на максимальной скорости!

    Как скачивать? · Что такое торрент? · Рейтинг и ограничения

    !ВНИМАНИЕ!
    Сайт не распространяет и не хранит электронные версии произведений, а занимается лишь лишь предоставлением доступа к создаваемому пользователями каталогу ссылок на торрент-файлы, которые содержат только списки хеш-сумм, убедительная просьба с жалобами обращаться напрямую к пользователю. Файлы для обмена на трекере предоставлены пользователями сайта, и администрация не несёт ответственности за их содержание. Просьба не заливать файлы, защищенные авторскими правами, а также файлы нелегального содержания!


    _________________
    [Профиль] [ЛС]
    Показать сообщения:    
    Ответить на тему

    Текущее время: Сегодня, в 20:10

    Часовой пояс: GMT + 2



    Вы не можете начинать темы
    Вы не можете отвечать на сообщения
    Вы не можете редактировать свои сообщения
    Вы не можете удалять свои сообщения
    Вы не можете голосовать в опросах
    Вы не можете прикреплять файлы к сообщениям
    Вы не можете скачивать файлы