BitTorrentTracker PerecTracker.org
BitTorrentTracker PerecTracker.org
    
Регистрация  ·  Вход
 
 · 
Забыли пароль?

  • Долгое падение / A Long Way Down (Паскаль Шомель / Pascal Chaumeil) [2014, Великобритания, Германия, драма, комедия, BDRip 720p] [GER Transfer] Dub + Original Eng + Sub (Rus, Eng)

    Ответить на тему
     
    Автор Сообщение

    Light

    Создавать темы 04-Авг-2016 02:24

           

    [Цитировать]

    Долгое падение / A Long Way Down
    «Life is looking up»
    -Год выпуска: 2014
    Страна: Великобритания, Германия
    Жанр: Драма, комедия-Продолжительность: 1:35:40
    Перевод: Профессиональный (полное дублирование)
    Оригинальная аудиодорожка: Английская
    Cубтитры: Русские, английские {*.srt}
    Навигация по главам: Присутствует-Режиссер: Паскаль Шомель / Pascal Chaumeil
    В ролях: Пирс Броснан, Имоджен Путс, Аарон Пол, Тони Коллетт, Сэм Нил, Таппенс Мидлтон, Розамунд Пайк, Зара Уайт, Джо Коул, Эвелин Дуа и др.-Описание: Четверо незнакомцев встречаются в канун Нового Года на крыше лондонского небоскреба. Каждый из них поднялся с одной целью — прыгнуть. Очередь в лучший мир заставляет их заключить пакт — дожить до Дня всех влюбленных и оторваться по полной.-Мировая премьера: 10 февраля, 2014 г. | Премьера в России: 15 мая, 2014 г.
    Сборы в США: $13 347 | Сборы в Мире: + $7 163 000 = $7 176 347 | Сборы в России: $26 908
    Ограничение по возрасту: 16+
    -Качество видео: BDRip 720p
    Формат видео: MKV
    Видео: 1280x536 (2.40:1), 24 fps, x264 ~4958 kbps avg, 0.301 bit/pixel
    Аудио#1: 48 kHz, AC3 Dolby Digital, 3/2 (L,C,R,l,r) + LFE ch, ~640 kbps | Dub (BD Rus)
    Аудио#2: 48 kHz, AC3 Dolby Digital, 3/2 (L,C,R,l,r) + LFE ch, ~640 kbps | Original Eng

    Интересные факты

    • Джонни Депп купил права на экранизацию еще до того, как была выпущена книга.
    • Эмиль Хирш мог сыграть роль Джей Джея, но в итоге он покинул проект из-за несогласованности рабочих графиков, а его роль досталась Аарону Полу.
    • Персонажи договариваются не совершать самоубийство до дня Св. Валентина. Когда Мартин и Джесс встречают её отца напротив здания парламента, часы на башне показывают 4:40 вечера. Учитывая время года, когда происходят события, на улице должно быть темно, но в кадре при этом ярко светит солнце.
    • Когда Мартин подбирает Джей Джея с его фургоном, идёт сильный дождь. Но в сцене, когда показывают Джей Джея справа, можно заметить, что дождь лишь слегка моросит.
    • Когда Джей Джей и Джесс идут к месту, где пропала сестра Джесс, они смотрят на пролетающих над ними стрижей. Стрижи мигрируют и зимуют в тропиках, а соответственно их не может быть в Великобритании в период с января по февраль, когда происходят события фильма.

    Видеоряд от JewelBox

    [color=black]A Long Way Down 2014 720p BluRay DD5.1 x264-JewelBox
    CONTAINER FORMAT..: Matroska
    SIZE..............: 3.74 GiB
    RUNTIME...........: 1:35:40
    FRAMERATE.........: 24 fps
    RESOLUTION........: 1280x536
    ASPECT RATIO......: 2.40:1
    VIDEO CODEC.......: x264, High@L4.1, ref=12
    VIDEO BITRATE.....: 4958 Kbps
    AUDIO.............: English AC-3 6ch @ 640 Kbps
    SUBTITLES.........: Eng, Ger (.srt)
    CHAPTERS..........: Included
    SOURCE............: A Long Way Down 2014 1080p GER Blu-ray AVC DTS-HD MA 5.1-XORBiTANT (thx b5ducdat!)
    ENCODER...........: Juvelir
    RELEASE DATE......: 26/07/2016
    x264 [info]: frame I:1069  Avg QP:11.89  size:112621
    x264 [info]: frame P:28137 Avg QP:13.21  size: 47762
    x264 [info]: frame B:108547 Avg QP:14.72  size: 19280
    x264 [info]: consecutive B-frames:  1.5%  1.3%  5.5% 21.1% 17.9% 41.3%  6.0%  2.4%  1.0%  0.5%  0.4%  0.4%  0.3%  0.3%
    x264 [info]: kb/s:4957.91[/color]

    Доп. информация

    • Релиз специально для -
    • Энкод с немецкого трансфера. Сравнения: RUS / GER / ITA-
    • За предоставление исходника спасибо d33 и SeRpUkHoViTcH.-
    • Источником русского звука и субтитров послужил Blu-ray от CP Digital.

    MediaInfo

    [color=black]General
    Unique ID                   : 196831215629548097599397508197804725078 (0x9414502EFF16AB90BF7471B3FF10D356)
    Complete name               : A.Long.Way.Down.2014.RUS.720p.BluRay.DD5.1.x264-tRuAVC.mkv
    Format                      : Matroska
    Format version              : Version 2
    File size                   : 4.17 GiB
    Duration                    : 1 h 35 min
    Overall bit rate            : 6 240 kb/s
    Movie name                  : A Long Way Down (2014) - BDRip 720p © Juvelir
    Encoded date                : UTC 2016-08-02 11:57:31
    Writing application         : mkvmerge v7.8.0 ('River Man') 32bit built on Apr  3 2015 12:11:22
    Writing library             : libebml v1.3.1 + libmatroska v1.4.2
    Video
    ID                          : 1
    Format                      : AVC
    Format/Info                 : Advanced Video Codec
    Format profile              : High@L4.1
    Format settings, CABAC      : Yes
    Format settings, ReFrames   : 12 frames
    Codec ID                    : V_MPEG4/ISO/AVC
    Duration                    : 1 h 35 min
    Bit rate                    : 4 836 kb/s
    Width                       : 1 280 pixels
    Height                      : 536 pixels
    Display aspect ratio        : 2.40:1
    Frame rate mode             : Constant
    Frame rate                  : 24.000 FPS
    Color space                 : YUV
    Chroma subsampling          : 4:2:0
    Bit depth                   : 8 bits
    Scan type                   : Progressive
    Bits/(Pixel*Frame)          : 0.294
    Stream size                 : 3.23 GiB (77%)
    Title                       : A Long Way Down 2014 720p BluRay DD5.1 x264-JewelBox
    Writing library             : x264 core 148 r2705kMod 3f5ed56
    Encoding settings           : cabac=1 / ref=12 / deblock=1:-3:-2 / analyse=0x3:0x133 / me=umh / subme=11 / psy=1 / fade_compensate=0.00 / psy_rd=1.00:0.00 / mixed_ref=1 / me_range=48 / chroma_me=1 / trellis=2 / 8x8dct=1 / cqm=0 / deadzone=21,11 / fast_pskip=0 / chroma_qp_offset=-2 / threads=6 / lookahead_threads=1 / sliced_threads=0 / nr=0 / decimate=1 / interlaced=0 / bluray_compat=0 / constrained_intra=0 / fgo=0 / bframes=13 / b_pyramid=2 / b_adapt=2 / b_bias=0 / direct=3 / weightb=1 / open_gop=0 / weightp=2 / keyint=240 / keyint_min=24 / scenecut=40 / intra_refresh=0 / rc_lookahead=60 / rc=crf / mbtree=0 / crf=15.2000 / qcomp=0.70 / qpmin=0 / qpmax=69 / qpstep=4 / vbv_maxrate=62500 / vbv_bufsize=78125 / crf_max=0.0 / nal_hrd=none / filler=0 / ip_ratio=1.35 / pb_ratio=1.25 / aq=1:1.00
    Language                    : English
    Default                     : Yes
    Forced                      : Yes
    Color range                 : Limited
    Color primaries             : BT.709
    Transfer characteristics    : BT.709
    Matrix coefficients         : BT.709
    Audio #1
    ID                          : 2
    Format                      : AC-3
    Format/Info                 : Audio Coding 3
    Mode extension              : CM (complete main)
    Format settings, Endianness : Big
    Codec ID                    : A_AC3
    Duration                    : 1 h 35 min
    Bit rate mode               : Constant
    Bit rate                    : 640 kb/s
    Channel(s)                  : 6 channels
    Channel positions           : Front: L C R, Side: L R, LFE
    Sampling rate               : 48.0 kHz
    Frame rate                  : 31.250 FPS (1536 spf)
    Compression mode            : Lossy
    Stream size                 : 438 MiB (10%)
    Title                       : Dub (Blu-ray)
    Language                    : Russian
    Default                     : Yes
    Forced                      : No
    Audio #2
    ID                          : 3
    Format                      : AC-3
    Format/Info                 : Audio Coding 3
    Mode extension              : CM (complete main)
    Format settings, Endianness : Big
    Codec ID                    : A_AC3
    Duration                    : 1 h 35 min
    Bit rate mode               : Constant
    Bit rate                    : 640 kb/s
    Channel(s)                  : 6 channels
    Channel positions           : Front: L C R, Side: L R, LFE
    Sampling rate               : 48.0 kHz
    Frame rate                  : 31.250 FPS (1536 spf)
    Compression mode            : Lossy
    Stream size                 : 438 MiB (10%)
    Title                       : Original
    Language                    : English
    Default                     : No
    Forced                      : No
    Text #1
    ID                          : 4
    Format                      : UTF-8
    Codec ID                    : S_TEXT/UTF8
    Codec ID/Info               : UTF-8 Plain Text
    Language                    : Russian
    Default                     : No
    Forced                      : No
    Text #2
    ID                          : 5
    Format                      : UTF-8
    Codec ID                    : S_TEXT/UTF8
    Codec ID/Info               : UTF-8 Plain Text
    Language                    : English
    Default                     : No
    Forced                      : No
    Menu
    00:00:00.000                : :Chapter 1
    00:09:32.167                : :Chapter 2
    00:23:02.875                : :Chapter 3
    00:34:01.042                : :Chapter 4
    00:42:15.167                : :Chapter 5
    00:51:04.167                : :Chapter 6
    01:01:09.083                : :Chapter 7
    01:12:20.458                : :Chapter 8
    01:20:31.958                : :Chapter 9
    01:30:47.708                : :Chapter 10[/color]

    Скриншоты

    Source / JewelBox / LolHD (RUS source)-





    Скачать .torrent

    Скачать торрент-файл бесплатно и на максимальной скорости!

    Как скачивать? · Что такое торрент? · Рейтинг и ограничения

    !ВНИМАНИЕ!
    Сайт не распространяет и не хранит электронные версии произведений, а занимается лишь лишь предоставлением доступа к создаваемому пользователями каталогу ссылок на торрент-файлы, которые содержат только списки хеш-сумм, убедительная просьба с жалобами обращаться напрямую к пользователю. Файлы для обмена на трекере предоставлены пользователями сайта, и администрация не несёт ответственности за их содержание. Просьба не заливать файлы, защищенные авторскими правами, а также файлы нелегального содержания!


    _________________
    [Профиль] [ЛС]
    Показать сообщения:    
    Ответить на тему

    Текущее время: Сегодня, в 13:49

    Часовой пояс: GMT + 2



    Вы не можете начинать темы
    Вы не можете отвечать на сообщения
    Вы не можете редактировать свои сообщения
    Вы не можете удалять свои сообщения
    Вы не можете голосовать в опросах
    Вы не можете прикреплять файлы к сообщениям
    Вы не можете скачивать файлы