BitTorrentTracker PerecTracker.org
BitTorrentTracker PerecTracker.org
    
Регистрация  ·  Вход
 
 · 
Забыли пароль?

  • Ночь Живой Дэб / Night of the Living Deb (Кайл Ранкин / Kyle Rankin) [2015, США, Ужасы, мелодрама, комедия, HDRip] DVO (Ох! Студия и Ворон) + Original Eng

    Ответить на тему
     
    Автор Сообщение

    Light

    Создавать темы 03-Авг-2016 22:12

           

    [Цитировать]

    Ночь Живой Дэб / Night of the Living Deb-Страна: США
    Жанр: Ужасы, мелодрама, комедия
    Год выпуска: 2015
    Продолжительность: 01:24:50-Перевод: Любительский (двухголосый закадровый) - (Ох! Студия) и Ворон
    Оригинальная аудиодорожка: английский
    Cубтитры: нет-Режиссер: Кайл Ранкин / Kyle Rankin-В ролях: Майкл Кэссиди, Мария Тэйер, Рэй Уайз, Крис Маркетт, Брайан Сакка, Шон С. Филлипс, Сид Уайлдер, Джули Бристер-Описание: Дэб — рыжая бестия. И где бы она ни появилась — приключения так и поджидают её. Может поэтому мужчины бросают её после первой ночи. Но когда начинается зомби-апокалипсис, Дэб решает не упускать своего последнего шанса и любой ценой подцепить себе жениха!--Сэмпл: http://multi-up.com/1112219-Релиз группа "Басмачи"-Качество видео: HDRip (исх. неизвестен)
    Формат видео: AVI
    Видео: 720x352 (2.054), 23.976 fps, XviD build 50, 2051 Kbps
    Аудио 1: 48.0 kHz, AC3 Dolby Digital, 2 ch, 192 Kbps [russ]
    Аудио 2: 48.0 kHz, AC3 Dolby Digital, 2 ch, 192 Kbps [eng]

    MediaInfo

    General
    Complete name : Downloads\Night of the Living Deb.2015.HDRip.avi
    Format : AVI
    Format/Info : Audio Video Interleave
    Format profile : OpenDML
    File size : 1.45 GiB
    Duration : 1h 24mn
    Overall bit rate : 2 453 Kbps
    Writing application : XviD4PSP 6.0 / 54.29.105
    Video #0
    ID : 0
    Format : xvid
    Codec ID : xvid
    Duration : 1h 24mn
    Bit rate : 2 051 Kbps
    Width : 720 pixels
    Height : 352 pixels
    Display aspect ratio : 2.054
    Frame rate : 23.976 fps
    Bits/(Pixel*Frame) : 0.338
    Stream size : 1.22 GiB (84%)
    Audio #1
    ID : 1
    Format : AC-3
    Format/Info : Audio Coding 3
    Mode extension : CM (complete main)
    Format settings, Endianness : Big
    Codec ID : 2000
    Duration : 1h 24mn
    Bit rate mode : Constant
    Bit rate : 192 Kbps
    Channel(s) : 2 channels
    Channel positions : Front: L R
    Sampling rate : 44.1 KHz
    Bit depth : 16 bits
    Compression mode : Lossy
    Stream size : 117 MiB (8%)
    Alignment : Aligned on interleaves
    Interleave, duration : 35 ms (0.84 video frame)
    Audio #2
    ID : 2
    Format : AC-3
    Format/Info : Audio Coding 3
    Mode extension : CM (complete main)
    Format settings, Endianness : Big
    Codec ID : 2000
    Duration : 1h 24mn
    Bit rate mode : Constant
    Bit rate : 192 Kbps
    Channel(s) : 2 channels
    Channel positions : Front: L R
    Sampling rate : 48.0 KHz
    Bit depth : 16 bits
    Compression mode : Lossy
    Stream size : 117 MiB (8%)
    Alignment : Aligned on interleaves
    Interleave, duration : 32 ms (0.77 video frame)

    Скриншот c названием фильма

    Скриншоты

    Скачать .torrent

    Скачать торрент-файл бесплатно и на максимальной скорости!

    Как скачивать? · Что такое торрент? · Рейтинг и ограничения

    !ВНИМАНИЕ!
    Сайт не распространяет и не хранит электронные версии произведений, а занимается лишь лишь предоставлением доступа к создаваемому пользователями каталогу ссылок на торрент-файлы, которые содержат только списки хеш-сумм, убедительная просьба с жалобами обращаться напрямую к пользователю. Файлы для обмена на трекере предоставлены пользователями сайта, и администрация не несёт ответственности за их содержание. Просьба не заливать файлы, защищенные авторскими правами, а также файлы нелегального содержания!


    _________________
    [Профиль] [ЛС]
    Показать сообщения:    
    Ответить на тему

    Текущее время: Сегодня, в 10:01

    Часовой пояс: GMT + 2



    Вы не можете начинать темы
    Вы не можете отвечать на сообщения
    Вы не можете редактировать свои сообщения
    Вы не можете удалять свои сообщения
    Вы не можете голосовать в опросах
    Вы не можете прикреплять файлы к сообщениям
    Вы не можете скачивать файлы