BitTorrentTracker PerecTracker.org
BitTorrentTracker PerecTracker.org
    
Регистрация  ·  Вход
 
 · 
Забыли пароль?

  • Когда прошлое впереди / Серии: 1-12 из 12 (Наталья Углицких) [2016, Мелодрама, SATRip]

    Ответить на тему
     
    Автор Сообщение

    rechyn

    Создавать темы 03-Авг-2016 19:59

           

    [Цитировать]

    Когда прошлое впереди
    Год выпуска: 2016
    Производство: FILM.UA Group, Intra Communications
    Жанр: Мелодрама
    Продолжительность: 00:46:00
    Субтитры: Украинские
    Режиссёр: Наталья Углицких
    В ролях: Елизавета Пащенко, Олег Штефанко, Игорь Бочкин, Елена Стефанская, Петр Крылов, Александр Попов, Виталий Салий, Влад Мамчур, Михаил Жонин, Алиса Гурьева, Катерина Олиферовская, Галина Корнеева, Ольга Радчук, Сергей Деревянко, Наталья Денисенко, Николай Боклан, Виктор Жданов, Светлана Орличенко
    Описание: У Тамары Ерошиной самые обычные мечты: карьера врача в столице, счастливая семья… Однажды она знакомится с сыном мэра города Сергеем Лупаревым и выходит за него замуж. Но семейная жизнь оказывается кошмаром. Не в силах терпеть побои и унижения мужа, Тамара убегает из дома. Надежду на то, что ей удастся начать новую жизнь, разбивает страшная новость о том, что Сергея находят убитым, и она, Тамара - объявлена в розыск как главная подозреваемая. Автобус, на котором девушка едет в столицу попадает в аварию. В страшной автокатастрофе ей единственной удается выжить... И судьба дарит ей шанс начать все сначала. Но расстаться с прошлым оказалось не так-то легко. Сможет ли Тамара выпутаться из этой истории, сохранит ли она свою свободу и вновь обретенную любовь?
    «Когда прошлое впереди» - это драматическая история, в которой есть и зависть, и предательство, и любовь, и месть, и убийство, и надежда на новую жизнь.
    -
    Доп. информация: Реклама отсутствует!
    -
    Все раздачи сериала:
    Сэмпл:
    Качество: SATRip
    Формат: AVI
    Видео кодек: XviD
    Аудио кодек: MP3
    Видео: 720x400, 25 fps, XviD, ~1700 kbps, 0.229 bit/pixel
    Аудио: 48 kHz, MPEG Layer 3, 2 ch, 192 kbps

    MI

    Общее
    Полное имя : U:\Сериалы (2015)\Когда прошлое впереди (2016)\Когда прошлое впереди.(01.seriya).2016.XviD.SATRip.by.simka.avi
    Формат : AVI
    Формат/Информация : Audio Video Interleave
    Размер файла : 649 Мбайт
    Продолжительность : 45 м.
    Общий поток : 2001 Кбит/сек
    Программа кодирования : VirtualDubModRus 1.5.10.2 (build 2542/release)
    Библиотека кодирования : VirtualDubMod build 2542/release
    Видео
    Идентификатор : 0
    Формат : MPEG-4 Visual
    Профиль формата : Advanced Simple@L5
    Параметр BVOP формата : 1
    Параметр QPel формата : Нет
    Параметр GMC формата : Без точки перехода
    Параметр матрицы формата : Default (MPEG)
    Идентификатор кодека : XVID
    Идентификатор кодека/Подсказка : XviD
    Продолжительность : 45 м.
    Битрейт : 1800 Кбит/сек
    Ширина : 720 пикселей
    Высота : 400 пикселей
    Соотношение сторон : 16:9
    Частота кадров : 25,000 кадров/сек
    Цветовое пространство : YUV
    Субдискретизация насыщенности : 4:2:0
    Битовая глубина : 8 бит
    Тип развёртки : Прогрессивная
    Метод сжатия : С потерями
    Бит/(Пиксели*Кадры) : 0.250
    Размер потока : 583 Мбайт (90%)
    Библиотека кодирования : XviD 1.2.1 (UTC 2008-12-04)
    Аудио
    Идентификатор : 1
    Формат : MPEG Audio
    Версия формата : Version 1
    Профиль формата : Layer 3
    Режим : Joint stereo
    Расширение режима : MS Stereo
    Идентификатор кодека : 55
    Идентификатор кодека/Подсказка : MP3
    Продолжительность : 45 м.
    Вид битрейта : Постоянный
    Битрейт : 192 Кбит/сек
    Каналы : 2 канала
    Частота : 48,0 КГц
    Метод сжатия : С потерями
    Размер потока : 62,2 Мбайт (10%)
    Выравнивание : Соединение по промежуткам
    Продолжительность промежутка : 40 мс. (1,00 видеокадр)
    Время предзагрузки промежутка : 504 мс.
    Библиотека кодирования : LAME3.99r
    Настройки программы : -m j -V 4 -q 2 -lowpass 18.6 -b 192

    Скриншоты

    Скачать .torrent

    Скачать торрент-файл бесплатно и на максимальной скорости!

    Как скачивать? · Что такое торрент? · Рейтинг и ограничения

    !ВНИМАНИЕ!
    Сайт не распространяет и не хранит электронные версии произведений, а занимается лишь лишь предоставлением доступа к создаваемому пользователями каталогу ссылок на торрент-файлы, которые содержат только списки хеш-сумм, убедительная просьба с жалобами обращаться напрямую к пользователю. Файлы для обмена на трекере предоставлены пользователями сайта, и администрация не несёт ответственности за их содержание. Просьба не заливать файлы, защищенные авторскими правами, а также файлы нелегального содержания!


    _________________
    [Профиль] [ЛС]
    Показать сообщения:    
    Ответить на тему

    Текущее время: Сегодня, в 18:29

    Часовой пояс: GMT + 2



    Вы не можете начинать темы
    Вы не можете отвечать на сообщения
    Вы не можете редактировать свои сообщения
    Вы не можете удалять свои сообщения
    Вы не можете голосовать в опросах
    Вы не можете прикреплять файлы к сообщениям
    Вы не можете скачивать файлы