BitTorrentTracker PerecTracker.org
BitTorrentTracker PerecTracker.org
    
Регистрация  ·  Вход
 
 · 
Забыли пароль?

  • Владимирская 15 / Сезон 1-2 / Серии: 1-32 из 32 (Валерий Рожко, Олег Туранский) [2015-2016, Детектив, WEBRip]

    Ответить на тему
     
    Автор Сообщение

    rechyn

    Создавать темы 03-Авг-2016 19:54

           

    [Цитировать]

    Владимирская 15 / Володимирська 15
    Год выпуска: 2015-2016
    Производство: FILM.UA Group по заказу телеканала ICTV
    Жанр: Детектив
    Продолжительность: 00:46:00
    Субтитры: Нет
    Режиссёр: Валерий Рожко, Олег Туранский
    В ролях: Сергей Стрельников, Яков Кучеревский, Виктория Литвиненко, Ярослав Кучеренко, Виктор Сарайкин
    Описание: При одном из Районных Управлении Внутренних Дел (РУВД) города Киева создается оперативная группа, задача которой -расследовать по горячим следам сложные, запутанные и загадочные преступления. В составе команды четверо разных по темпераменту, опыту и характеру оперативников. У каждого из них своя история прихода в милицию, свои методы и подходы к решению поставленных задач, у каждого разные, порой даже выходящие за рамки закона. Но цель у всех одна – найти и обезвредить… Фильм снимается по заказу телеканала ICTV, премьера сериала в эфире запланирована на осень 2015 года.
    "Киев 2015 год. Начальнику Подольского райотдела, полковнику Безлюдному катастрофически не хватает квалифицированных кадров.
    После трагических событий на Майдане, милиция потеряла доверие граждан, а меж тем Киев захлестнула волна преступности.
    Безлюдный решает создать оперативную группу профессионалов, во главе которой становится майор Дикий.
    Его задача создать из талантливых одиночек команду способную быстро и эффективно реагировать на изменения
    криминогенной ситуации в Киеве, расследовать самые сложных дела, а также вернуть утраченную репутацию милиции.
    Каждый день группа расследует новые преступления, но самый опасный враг кроется внутри группы.
    У каждого есть свои тайны и скелеты в шкафу. Иногда, чтобы обрести будущее, нужно победить прошлое".-Доп. информация: Реклама отсутствует!--Все раздачи сериала:
    Сэмпл:
    Качество: WEBRip
    Формат: AVI
    Видео кодек: XviD
    Аудио кодек: MP3
    Видео: 720x400, 25 fps, XviD, ~1440 kbps, 0.229 bit/pixel
    Аудио: 44.1 kHz, MPEG Layer 3, 2 ch, 192 kbps

    MI

    Общее
    Полное имя : I:\001\Владимирская, 15 (2015-2016) WEB-DLRip\Владимирская, 15.(01.seriya).2015.XviD.WEB-DLRip.by.simka.avi
    Формат : AVI
    Формат/Информация : Audio Video Interleave
    Размер файла : 551 Мбайт
    Продолжительность : 46 м.
    Общий поток : 1666 Кбит/сек
    Программа кодирования : VirtualDubMod 1.5.10.3 | www.virtualdub-fr.org || (build 2550/release)
    Библиотека кодирования : VirtualDubMod build 2550/release
    Видео
    Идентификатор : 0
    Формат : MPEG-4 Visual
    Профиль формата : Advanced Simple@L5
    Параметр BVOP формата : 1
    Параметр QPel формата : Нет
    Параметр GMC формата : Без точки перехода
    Параметр матрицы формата : Default (MPEG)
    Идентификатор кодека : XVID
    Идентификатор кодека/Подсказка : XviD
    Продолжительность : 46 м.
    Битрейт : 1465 Кбит/сек
    Ширина : 720 пикселей
    Высота : 400 пикселей
    Соотношение сторон : 16:9
    Частота кадров : 25,000 кадров/сек
    Цветовое пространство : YUV
    Субдискретизация насыщенности : 4:2:0
    Битовая глубина : 8 бит
    Тип развёртки : Прогрессивная
    Метод сжатия : С потерями
    Бит/(Пиксели*Кадры) : 0.203
    Размер потока : 484 Мбайт (88%)
    Библиотека кодирования : XviD 1.2.1 (UTC 2008-12-04)
    Аудио
    Идентификатор : 1
    Формат : MPEG Audio
    Версия формата : Version 1
    Профиль формата : Layer 3
    Режим : Joint stereo
    Расширение режима : MS Stereo
    Идентификатор кодека : 55
    Идентификатор кодека/Подсказка : MP3
    Продолжительность : 46 м.
    Вид битрейта : Постоянный
    Битрейт : 192 Кбит/сек
    Каналы : 2 канала
    Частота : 44,1 КГц
    Метод сжатия : С потерями
    Размер потока : 63,5 Мбайт (12%)
    Выравнивание : Разделение по промежуткам
    Продолжительность промежутка : 40 мс. (1,00 видеокадр)
    Время предзагрузки промежутка : 500 мс.
    Библиотека кодирования : LAME3.99r
    Настройки программы : -m j -V 4 -q 2 -lowpass 18.6 -b 192

    Скриншоты

    01-16


    17-32
    Скачать .torrent

    Скачать торрент-файл бесплатно и на максимальной скорости!

    Как скачивать? · Что такое торрент? · Рейтинг и ограничения

    !ВНИМАНИЕ!
    Сайт не распространяет и не хранит электронные версии произведений, а занимается лишь лишь предоставлением доступа к создаваемому пользователями каталогу ссылок на торрент-файлы, которые содержат только списки хеш-сумм, убедительная просьба с жалобами обращаться напрямую к пользователю. Файлы для обмена на трекере предоставлены пользователями сайта, и администрация не несёт ответственности за их содержание. Просьба не заливать файлы, защищенные авторскими правами, а также файлы нелегального содержания!


    _________________
    [Профиль] [ЛС]
    Показать сообщения:    
    Ответить на тему

    Текущее время: Сегодня, в 10:26

    Часовой пояс: GMT + 2



    Вы не можете начинать темы
    Вы не можете отвечать на сообщения
    Вы не можете редактировать свои сообщения
    Вы не можете удалять свои сообщения
    Вы не можете голосовать в опросах
    Вы не можете прикреплять файлы к сообщениям
    Вы не можете скачивать файлы