BitTorrentTracker PerecTracker.org
BitTorrentTracker PerecTracker.org
    
Регистрация  ·  Вход
 
 · 
Забыли пароль?

  • Останній москаль (Останній москаль. Судний день) / Последний Москаль (Последний москаль. Судный день), Сезон: 1-2: Серии: 1-32 из 32 (Горов Семен) [2015-2016, Комедия, WEBRip]

    Ответить на тему
     
    Автор Сообщение

    rechyn

    Создавать темы 03-Авг-2016 19:49

           

    [Цитировать]

    Последний Москаль «Прекрасная патриотическая комедия / Файна патріотична комедія!»-Год выпуска: 2015
    Страна: Украина, "1+1 продакшн"
    Жанр: Комедия
    Продолжительность: 16 x ~00:24:00
    Субтитры: Нет, Скачать субтитры с облака
    Перевод: Не требуется
    Язык: Русский, украинский (5/95)
    Режиссёр: Семен Горов
    В ролях: Игорь Скрипко, Юрий Горбунов, Владимир Горянский, Назар Заднепровский, Владимир Николаенко, Наталья Корецкая, Галина Безрук
    Описание: Отец главного героя Валеры вынужден бежать из Москвы — его преследует мафия и ФСБ. Сына он отправляет в Украину, в глухое село, к родному дяде… Московский мажор неожиданно попадает в разные перипетии…
    Слоган: «Прекрасная патриотическая комедия / Файна патріотична комедія!»
    --Последний москаль. Судный день «От рая в ад - один москаль / Від раю до пекла - один москаль!»-Год выпуска: 2016
    Страна: Украина, "1+1 продакшн"
    Жанр: Комедия
    Продолжительность: 16 x ~00:26:00
    Субтитры: Нет
    Перевод: Не требуется
    Язык: Русский, украинский (5/95)
    Режиссёр: Семен Горов
    В ролях: Игорь Скрипко, Юрий Горбунов, Владимир Горянский, Назар Заднепровский, Владимир Николаенко, Наталья Корецкая, Галина Безрук, Лилия Ребрик, Ольга Сумская
    Описание: Во втором сезоне Карпаты содрогнутся — их ждет скандальное возвращение блудного гуцула, брата Ивана и отца Валеры, Дмитрия Петрука. Предприимчивый олигарх, заручившись поддержкой Валеры, планирует построить в Великих Вуйках современный мегаприбыльный курорт «Вуйковель». Правда, для постройки придется сравнять с полониной все село… Ошарашенные таким поворотом жители объединяются против варварского бизнес-плана. Но дьявольская сделка заключена, и бульдозеры уже тронулись с места…
    Слоган: «От рая в ад - один москаль / Від раю до пекла - один москаль»
    -Доп. информация: Реклама отсутствует! в том числе ТВ спонсоры и анонсы!
    Сайт сериала: http://moskal.1plus1.ua/
    Сэмпл: https://cloud.mail.ru/public/7XrT/J5GFVXtJL-Качество: WEBRip (Рип сделан с 1080р с ютуба)
    Формат: AVI
    Видео кодек: XviD
    Аудио кодек: MP3
    Видео: 720x400, 25 fps, XviD, ~1800 kbps, 0.229 bit/pixel
    Аудио: 44.1 kHz, MPEG Layer 3, 2 ch, 192 kbps

    MI

    Общее
    Полное имя : I:\001\Последний москаль (1-2 сезон) (2015-2016)\Последний москаль (1 сезон) (2015)\Последний москаль.(12.seriya).2015.XviD.WEB-DLRip.by.simka.avi
    Формат : AVI
    Формат/Информация : Audio Video Interleave
    Размер файла : 350 Мбайт
    Продолжительность : 24 м.
    Общий поток : 2010 Кбит/сек
    Программа кодирования : VirtualDubMod 1.5.10.3 | www.virtualdub-fr.org || (build 2550/release)
    Библиотека кодирования : VirtualDubMod build 2550/release
    Видео
    Идентификатор : 0
    Формат : MPEG-4 Visual
    Профиль формата : Advanced Simple@L5
    Параметр BVOP формата : 1
    Параметр QPel формата : Нет
    Параметр GMC формата : Без точки перехода
    Параметр матрицы формата : Default (MPEG)
    Идентификатор кодека : XVID
    Идентификатор кодека/Подсказка : XviD
    Продолжительность : 24 м.
    Битрейт : 1808 Кбит/сек
    Ширина : 720 пикселей
    Высота : 400 пикселей
    Соотношение сторон : 16:9
    Частота кадров : 25,000 кадров/сек
    Цветовое пространство : YUV
    Субдискретизация насыщенности : 4:2:0
    Битовая глубина : 8 бит
    Тип развёртки : Прогрессивная
    Метод сжатия : С потерями
    Бит/(Пиксели*Кадры) : 0.251
    Размер потока : 315 Мбайт (90%)
    Библиотека кодирования : XviD 1.2.1 (UTC 2008-12-04)
    Аудио
    Идентификатор : 1
    Формат : MPEG Audio
    Версия формата : Version 1
    Профиль формата : Layer 3
    Режим : Joint stereo
    Идентификатор кодека : 55
    Идентификатор кодека/Подсказка : MP3
    Продолжительность : 24 м.
    Вид битрейта : Постоянный
    Битрейт : 192 Кбит/сек
    Каналы : 2 канала
    Частота : 44,1 КГц
    Метод сжатия : С потерями
    Размер потока : 33,5 Мбайт (10%)
    Выравнивание : Разделение по промежуткам
    Продолжительность промежутка : 40 мс. (1,00 видеокадр)
    Время предзагрузки промежутка : 500 мс.
    Библиотека кодирования : LAME3.99r
    Настройки программы : -m j -V 4 -q 2 -lowpass 18.6 -b 192

    Список выпусков/серий

    Первый сезон

    Второй сезон

    Скриншоты



    --
    Скачать .torrent

    Скачать торрент-файл бесплатно и на максимальной скорости!

    Как скачивать? · Что такое торрент? · Рейтинг и ограничения

    !ВНИМАНИЕ!
    Сайт не распространяет и не хранит электронные версии произведений, а занимается лишь лишь предоставлением доступа к создаваемому пользователями каталогу ссылок на торрент-файлы, которые содержат только списки хеш-сумм, убедительная просьба с жалобами обращаться напрямую к пользователю. Файлы для обмена на трекере предоставлены пользователями сайта, и администрация не несёт ответственности за их содержание. Просьба не заливать файлы, защищенные авторскими правами, а также файлы нелегального содержания!


    _________________
    [Профиль] [ЛС]
    Показать сообщения:    
    Ответить на тему

    Текущее время: Сегодня, в 20:37

    Часовой пояс: GMT + 2



    Вы не можете начинать темы
    Вы не можете отвечать на сообщения
    Вы не можете редактировать свои сообщения
    Вы не можете удалять свои сообщения
    Вы не можете голосовать в опросах
    Вы не можете прикреплять файлы к сообщениям
    Вы не можете скачивать файлы