BitTorrentTracker PerecTracker.org
BitTorrentTracker PerecTracker.org
    
Регистрация  ·  Вход
 
 · 
Забыли пароль?

  • Невероятное путешествие мистера Спивета / The Young and Prodigious T.S. Spivet (Жан-Пьер Жёне / Jean-Pierre Jeunet) [2013, Франция, Канада, Драма, приключения, семейный, HDRip] Dub

    Ответить на тему
     
    Автор Сообщение

    Light

    Создавать темы 03-Авг-2016 18:03

           

    [Цитировать]

    Невероятное путешествие мистера Спивета / The Young and Prodigious T.S. Spivet
    Страна: Франция, Канада
    Жанр: Драма, приключения, семейный
    Год выпуска: 2013
    Продолжительность: 01:45:07
    Перевод: Профессиональный (дублированный) (Мосфильм-мастер)
    Cубтитры: нет
    Режиссер: Жан-Пьер Жёне / Jean-Pierre Jeunet
    В ролях: Кайл Кэтлетт, Хелена Бонем Картер, Джуди Дэвис, Каллум Кит Ренни, Нив Уилсон, Джейкоб Дейвис, Рик Мерсер, Доминик Пинон, Джулиан Ричингс, Ричард Жютра и др.
    Описание: Десятилетний Т.В. Спивет живет на ранчо в Монтане с его матерью, которая одержима морфологией жуков, его отец - ковбой, а его 14-летняя сестра мечтает стать победительницей конкурса Мисс Америка. Т.С. - 10-летнее чудо со страстью к картографии и научным изобретениям. Однажды, он получает неожиданный звонок, в котором ему сообщают, что он - победитель очень престижного приза Байрда и что он приглашен на прием, где он, как ожидают, должен произнести речь. Не говоря никому, Спивет намеревается на грузовом поезде через США доехать до Вашингтона, округ Колумбия.
    Релиз от Megapeer

    Качество видео: HDRip (Исх. The.Young.and.Prodigious.Spivet.2013.720p-EbP.Rus.Eng)
    Формат видео: AVI
    Видео: 688x288 (2.39:1), 23.976 fps, XviD build 73 ~858 kbps avg, 0.18 bit/pixel
    Аудио: 48 kHz, MPEG Layer 3, 2 ch, ~128.00 kbps avg

    MediaInfo

    ОбщееПолное имя : D:\загрузки\The.Young.and.Prodigious.Spivet.2013.HDRip.745MB.MegaPeer.aviФормат : AVIФормат/Информация : Audio Video InterleaveРазмер файла : 746 МбайтПродолжительность : 1 ч. 45 м.Общий поток : 992 Кбит/сек
    ВидеоИдентификатор : 0Формат : MPEG-4 VisualПрофиль формата : Advanced Simple@L5Параметр BVOP формата : 1Параметр QPel формата : НетПараметр GMC формата : Без точки переходаПараметр матрицы формата : ВыборочнаяИдентификатор кодека : XVIDИдентификатор кодека/Подсказка : XviDПродолжительность : 1 ч. 45 м.Битрейт : 858 Кбит/секШирина : 688 пикселейВысота : 288 пикселейСоотношение сторон : 2,40:1Частота кадров : 23,976 (24000/1001) кадра/секЦветовое пространство : YUVСубдискретизация насыщенности : 4:2:0Битовая глубина : 8 битТип развёртки : ПрогрессивнаяМетод сжатия : С потерямиБит/(Пиксели*Кадры) : 0.181Размер потока : 645 Мбайт (87%)Библиотека кодирования : XviD 73
    АудиоИдентификатор : 1Формат : MPEG AudioВерсия формата : Version 1Профиль формата : Layer 3Режим : Joint stereoРасширение режима : MS StereoИдентификатор кодека : 55Идентификатор кодека/Подсказка : MP3Продолжительность : 1 ч. 45 м.Вид битрейта : ПостоянныйБитрейт : 128 Кбит/секКаналы : 2 каналаЧастота : 48,0 КГцМетод сжатия : С потерямиРазмер потока : 96,2 Мбайт (13%)Выравнивание : Соединение по промежуткамПродолжительность промежутка : 167 мс. (4,00 видеокадра)Время предзагрузки промежутка : 216 мс.Заголовок : HTB+Библиотека кодирования : LAME3.99rНастройки программы : -m j -V 4 -q 2 -lowpass 17 -b 128

    Скриншоты

    Скачать .torrent

    Скачать торрент-файл бесплатно и на максимальной скорости!

    Как скачивать? · Что такое торрент? · Рейтинг и ограничения

    !ВНИМАНИЕ!
    Сайт не распространяет и не хранит электронные версии произведений, а занимается лишь лишь предоставлением доступа к создаваемому пользователями каталогу ссылок на торрент-файлы, которые содержат только списки хеш-сумм, убедительная просьба с жалобами обращаться напрямую к пользователю. Файлы для обмена на трекере предоставлены пользователями сайта, и администрация не несёт ответственности за их содержание. Просьба не заливать файлы, защищенные авторскими правами, а также файлы нелегального содержания!


    _________________
    [Профиль] [ЛС]
    Показать сообщения:    
    Ответить на тему

    Текущее время: Сегодня, в 12:16

    Часовой пояс: GMT + 2



    Вы не можете начинать темы
    Вы не можете отвечать на сообщения
    Вы не можете редактировать свои сообщения
    Вы не можете удалять свои сообщения
    Вы не можете голосовать в опросах
    Вы не можете прикреплять файлы к сообщениям
    Вы не можете скачивать файлы