BitTorrentTracker PerecTracker.org
BitTorrentTracker PerecTracker.org
    
Регистрация  ·  Вход
 
 · 
Забыли пароль?

  • [ATV3] Cпайпер: воин призрак / Sniper: Ghost Shooter (Дон Майкл Пол / Don Michael Paul ) [2016, США, Боевик, драма, военный, WEB-DL, HD (1080p)] MVO + Original + sub (eng, rus, ukr)

    Ответить на тему
     
    Автор Сообщение

    rechyn

    Создавать темы 03-Авг-2016 09:39

           

    [Цитировать]

    Cпайпер: воин призрак / Sniper: Ghost Shooter
    -
    -Год выпуска: 2016
    Страна: США
    Жанр: Боевик, драма, военный
    Продолжительность: 01:39:07
    Перевод: Многоголосый закадровый (iTunes)
    Оригинальная аудиодорожка: Есть
    Cубтитры: Английские форсированные, Русские, Английские, Украинские
    Режиссёр: Дон Майкл Пол
    Сценарий: Крис Хоти
    Художник: Асен Бозилов
    Монтаж: Камерон Халленбек
    В ролях: Найджел Барбер, Чад Коллинз, Пресцилиана Эспаролини, Энок Фрост, Ник Гомес, Деннис Хейсбёрт, Равиль Исянов, Велислав Павлов, Стефани Вогт, Билли Зейн
    Бюджет: $3 000 000
    Мировая премьера: 2 августа 2016
    Описание: Элитные снайперы Брэндон Беккет и Ричард Миллер должны выполнить очередную задачу, защитив линию газопровода от захвата террористов. Когда герои понимают, что противник знает их точное место расположения, у них появляются подозрения о том, что кто-то из их руководства информирует террористов.-Качество исходника: WEB-DL 1080p (HDClub)
    Качество: WEB-DL
    Тип: HD (1080p)
    Контейнер: M4V
    Видео: H.264, 1916x1076, 16:9, 4 982 Kbps, 23.976 fps
    Аудио 1: Русский/Многоголосый закадровый (iTunes), AAC / 2.0 / 157 Kbps / 48.0 KHz
    Аудио 2: Английский/Оригинальная дорожка , AAC / 2.0 / 158 Kbps / 48.0 KHz
    Аудио 3: Русский/Многоголосый закадровый (iTunes), AC-3 / 5.1 / 384 Kbps / 48.0 KHz
    Субтитры 1: Английские форсированные
    Субтитры 2: Русские полные
    Субтитры 3: Английские полные
    Субтитры 4: Украинские полные
    -

    iTunes Meta Tags

    Sort Name: Sniper: Ghost Shooter
    XID: Apple:vendor_id:2016-940616
    contentID: 1129606829
    Screenwriters: Крис Хоти
    Producers: -
    Director: Дон Майкл Пол
    Cast: Найджел Барбер, Чад Коллинз, Пресцилиана Эспаролини, Энок Фрост, Ник Гомес, Деннис Хейсбёрт, Равиль Исянов, Велислав Павлов, Стефани Вогт, Билли Зейн
    Rating: 5
    Long Description: Элитные снайперы Брэндон Беккет и Ричард Миллер должны выполнить очередную задачу, защитив линию газопровода от захвата террористов. Когда герои понимают, что противник знает их точное место расположения, у них появляются подозрения о том, что кто-то из их руководства информирует террористов.
    Description: Элитные снайперы Брэндон Беккет и Ричард Миллер должны выполнить очередную задачу, защитив линию газопровода от захвата террористов.
    Release Date: 2016-08-02T08:00:00Z
    Genre: Action & Adventure
    Artist: Don Michael Paul
    Name: Sniper: Ghost Shooter

    MediaInfo

    General
    Complete name : /Users/imac/HandBrake/Sniper.Ghost.Shooter.WEB-DL.1080p.m4v
    Format : MPEG-4
    Codec ID : M4V
    File size : 3.94 GiB
    Duration : 1h 39mn
    Overall bit rate mode : Variable
    Overall bit rate : 5 692 Kbps
    Movie name : Sniper: Ghost Shooter
    Performer : Don Michael Paul
    Director : Дон Майкл Пол
    Actor : Найджел Барбер / Чад Коллинз / Пресцилиана Эспаролини / Энок Фрост / Ник Гомес / Деннис Хейсбёрт / Равиль Исянов / Велислав Павлов / Стефани Вогт / Билли Зейн
    Screenplay by : Крис Хоти
    Producer : -
    Genre : Action & Adventure
    ContentType : Short Film
    Description : Элитные снайперы Брэндон Беккет и Ричард Миллер должны выполнить очередную задачу, защитив линию газопровода от захвата террористов.
    Recorded date : UTC 2016-08-02 08:00:00
    Encoded date : UTC 2016-08-02 22:39:12
    Tagged date : UTC 2016-08-02 22:41:52
    Cover : Yes
    Rating : None
    Title/Sort : Sniper: Ghost Shooter
    LongDescription : Элитные снайперы Брэндон Беккет и Ричард Миллер должны выполнить очередную задачу, защитив линию газопровода от захвата террористов. Когда герои понимают, что противник знает их точное место расположения, у них появляются подозрения о том, что кто-то из их руководства информирует террористов.
    AppleStoreCatalogID : 1129606829
    Vendor : Apple:vendor_id:2016-940616
    ContentRating : mpaa|R|400|
    Video #1
    ID : 1
    Format : AVC
    Format/Info : Advanced Video Codec
    Format profile : High@L4
    Format settings, CABAC : Yes
    Format settings, ReFrames : 4 frames
    Codec ID : avc1
    Codec ID/Info : Advanced Video Coding
    Duration : 1h 39mn
    Bit rate : 4 982 Kbps
    Width : 1 916 pixels
    Height : 1 076 pixels
    Display aspect ratio : 16:9
    Frame rate mode : Variable
    Frame rate : 23.976 fps
    Minimum frame rate : 23.810 fps
    Maximum frame rate : 24.390 fps
    Color space : YUV
    Chroma subsampling : 4:2:0
    Bit depth : 8 bits
    Scan type : Progressive
    Bits/(Pixel*Frame) : 0.101
    Stream size : 3.45 GiB (88%)
    Title : Main Program
    Language : English
    Encoded date : UTC 2016-08-02 22:39:12
    Tagged date : UTC 2016-08-02 22:40:40
    Color range : Limited
    Color primaries : BT.709
    Transfer characteristics : BT.709
    Matrix coefficients : BT.709
    Video #2
    ID : 10
    Format : JPEG
    Codec ID : jpeg
    Duration : 1h 39mn
    Bit rate mode : Variable
    Bit rate : 1 270 bps
    Width : 640 pixels
    Height : 359 pixels
    Display aspect ratio : 16:9
    Frame rate mode : Variable
    Frame rate : 0.003 fps
    Minimum frame rate : 0.001 fps
    Maximum frame rate : 0.005 fps
    Color space : YUV
    Chroma subsampling : 4:2:0
    Bit depth : 8 bits
    Compression mode : Lossy
    Bits/(Pixel*Frame) : 1.843
    Stream size : 827 KiB (0%)
    Title : Chapter Images
    Language : English
    Encoded date : UTC 2016-08-02 22:40:47
    Tagged date : UTC 2016-08-02 22:40:47
    Audio #1
    ID : 2
    Format : AAC
    Format/Info : Advanced Audio Codec
    Format profile : LC
    Codec ID : 40
    Duration : 1h 39mn
    Bit rate mode : Variable
    Bit rate : 157 Kbps
    Maximum bit rate : 243 Kbps
    Channel(s) : 2 channels
    Channel positions : Front: L R
    Sampling rate : 48.0 KHz
    Compression mode : Lossy
    Stream size : 112 MiB (3%)
    Title : Russian Stereo
    Language : Russian
    Encoded date : UTC 2016-08-02 22:39:12
    Tagged date : UTC 2016-08-02 22:39:17
    Audio #2
    ID : 3
    Format : AAC
    Format/Info : Advanced Audio Codec
    Format profile : LC
    Codec ID : 40
    Duration : 1h 39mn
    Bit rate mode : Variable
    Bit rate : 158 Kbps
    Maximum bit rate : 241 Kbps
    Channel(s) : 2 channels
    Channel positions : Front: L R
    Sampling rate : 48.0 KHz
    Compression mode : Lossy
    Stream size : 112 MiB (3%)
    Title : English Stereo
    Language : English
    Encoded date : UTC 2016-08-02 22:39:12
    Tagged date : UTC 2016-08-02 22:39:17
    Audio #3
    ID : 4
    Format : AC-3
    Format/Info : Audio Coding 3
    Mode extension : CM (complete main)
    Format settings, Endianness : Big
    Codec ID : ac-3
    Duration : 1h 39mn
    Bit rate mode : Constant
    Bit rate : 384 Kbps
    Channel(s) : 6 channels
    Channel positions : Front: L C R, Side: L R, LFE
    Sampling rate : 48.0 KHz
    Bit depth : 16 bits
    Compression mode : Lossy
    Stream size : 272 MiB (7%)
    Title : Russian DD 5.1
    Language : Russian
    Encoded date : UTC 2016-08-02 22:39:12
    Tagged date : UTC 2016-08-02 22:40:40
    Text #1
    ID : 5
    Format : Timed Text
    Muxing mode : sbtl
    Codec ID : tx3g
    Duration : 1h 30mn
    Bit rate mode : Variable
    Bit rate : 2 bps
    Stream size : 1.60 KiB (0%)
    Title : English forced
    Language : English
    Encoded date : UTC 2016-08-02 22:39:12
    Tagged date : UTC 2016-08-02 22:40:40
    Text #2
    ID : 6
    Format : Timed Text
    Muxing mode : sbtl
    Codec ID : tx3g
    Duration : 1h 36mn
    Bit rate mode : Variable
    Bit rate : 71 bps
    Stream size : 49.9 KiB (0%)
    Title : Russian full
    Language : Russian
    Encoded date : UTC 2016-08-02 22:39:12
    Tagged date : UTC 2016-08-02 22:40:40
    Text #3
    ID : 7
    Format : Timed Text
    Muxing mode : sbtl
    Codec ID : tx3g
    Duration : 1h 36mn
    Bit rate mode : Variable
    Bit rate : 47 bps
    Stream size : 33.3 KiB (0%)
    Title : English full
    Language : English
    Encoded date : UTC 2016-08-02 22:39:12
    Tagged date : UTC 2016-08-02 22:40:40
    Text #4
    ID : 8
    Format : Timed Text
    Muxing mode : sbtl
    Codec ID : tx3g
    Duration : 1h 36mn
    Bit rate mode : Variable
    Bit rate : 77 bps
    Stream size : 54.2 KiB (0%)
    Title : Ukrainian full
    Language : Ukrainian
    Encoded date : UTC 2016-08-02 22:39:12
    Tagged date : UTC 2016-08-02 22:40:40
    Menu #1
    00:00:00.000 : 1
    00:11:49.584 : 2
    00:16:06.257 : 3
    00:21:24.533 : 4
    00:26:35.468 : 5
    00:34:49.086 : 6
    00:41:14.261 : 7
    00:45:08.663 : 8
    00:49:00.061 : 9
    00:53:00.926 : 10
    01:02:11.434 : 11
    01:10:38.232 : 12
    01:14:05.981 : 13
    01:20:28.196 : 14
    01:25:45.429 : 15
    01:34:35.500 : 16
    Menu #2
    ID : 9
    Codec ID : text
    Duration : 1h 39mn
    Language : English
    Encoded date : UTC 2016-08-02 22:40:40
    Tagged date : UTC 2016-08-02 22:40:40
    00:00:00.000 : 1
    00:11:49.584 : 2
    00:16:06.257 : 3
    00:21:24.533 : 4
    00:26:35.468 : 5
    00:34:49.086 : 6
    00:41:14.261 : 7
    00:45:08.663 : 8
    00:49:00.061 : 9
    00:53:00.926 : 10
    01:02:11.434 : 11
    01:10:38.232 : 12
    01:14:05.981 : 13
    01:20:28.196 : 14
    01:25:45.429 : 15
    01:34:35.500 : 16
    Bit rate mode : VBR

    Скриншоты

    -

    Релиз подготовлен для просмотра на Apple TV, iPad, iPhone, iPod Touch.
    Для просмотра данного релиза на компьютере с ОС Windows рекомендуется использовать VLC media player
    Скачать .torrent

    Скачать торрент-файл бесплатно и на максимальной скорости!

    Как скачивать? · Что такое торрент? · Рейтинг и ограничения

    !ВНИМАНИЕ!
    Сайт не распространяет и не хранит электронные версии произведений, а занимается лишь лишь предоставлением доступа к создаваемому пользователями каталогу ссылок на торрент-файлы, которые содержат только списки хеш-сумм, убедительная просьба с жалобами обращаться напрямую к пользователю. Файлы для обмена на трекере предоставлены пользователями сайта, и администрация не несёт ответственности за их содержание. Просьба не заливать файлы, защищенные авторскими правами, а также файлы нелегального содержания!


    _________________
    [Профиль] [ЛС]
    Показать сообщения:    
    Ответить на тему

    Текущее время: Сегодня, в 02:56

    Часовой пояс: GMT + 2



    Вы не можете начинать темы
    Вы не можете отвечать на сообщения
    Вы не можете редактировать свои сообщения
    Вы не можете удалять свои сообщения
    Вы не можете голосовать в опросах
    Вы не можете прикреплять файлы к сообщениям
    Вы не можете скачивать файлы