BitTorrentTracker PerecTracker.org
BitTorrentTracker PerecTracker.org
    
Регистрация  ·  Вход
 
 · 
Забыли пароль?

  • Шик! / Chic! (Жером Корнюо / Jérôme Cornuau) [2015, Франция, комедия, HDTV 1080i] MVO + Sub Rus

    Ответить на тему
     
    Автор Сообщение

    Light

    Создавать темы 02-Авг-2016 14:42

           

    [Цитировать]

    Шик! / Chic!
    Страна: Франция
    Жанр: Комедия
    Год выпуска: 2015
    Продолжительность: 01:37:12
    Перевод: Профессиональный (многоголосый закадровый)
    Cубтитры: русские
    Оригинальная аудиодорожка: нет
    Режиссер: Жером Корнюо / Jérôme Cornuau
    В ролях: Фанни Ардан, Марина Хэндс, Эрик Элмоснино, Лоран Стокер, Катрин Осмален, Филипп Дюкен, Индия Хэйр, Клеменс Бретеше, Дебора Гралл
    Описание: У Алисии, дизайнера известного дома высокой моды, из-за развода иссяк источник вдохновения. Как назло, показ новой коллекции уже не за горами…
    Сэмпл: http://multi-up.com/1112262
    Тип релиза: HDTV 1080i
    Контейнер: TS
    Видео: AVC, 1920x1080 (16:9), 25.000 fps, 5 734 Kbps (0.111 bit/pixel)
    Аудио: MP2, 48.0 KHz, 2 ch, 192 Kbps, CBR (Russian)
    Формат субтитров: teletext

    MediaInfo

    Общее
    Идентификатор : 7 (0x7)
    Полное имя : M:\Шик!.ts
    Формат : MPEG-TS
    Размер файла : 4,23 Гбайт
    Продолжительность : 1 ч. 37 м.
    Режим общего битрейта : Переменный
    Общий поток : 6236 Кбит/сек
    Видео
    Идентификатор : 2141 (0x85D)
    Идентификатор меню : 21004 (0x520C)
    Формат : AVC
    Формат/Информация : Advanced Video Codec
    Профиль формата : Main@L4
    Параметр CABAC формата : Да
    Параметр ReFrames формата : 4 кадра
    Идентификатор кодека : 27
    Продолжительность : 1 ч. 37 м.
    Битрейт : 5734 Кбит/сек
    Ширина : 1920 пикселей
    Высота : 1080 пикселей
    Соотношение сторон : 16:9
    Частота кадров : 25,000 кадров/сек
    Цветовое пространство : YUV
    Субдискретизация насыщенности : 4:2:0
    Битовая глубина : 8 бит
    Тип развёртки : Чересстрочная
    Метод сохранения типа развёртки : Раздельные поля
    Порядок развёртки : Верхнее поле первое
    Бит/(Пиксели*Кадры) : 0.111
    Размер потока : 3,89 Гбайт (92%)
    Цветовой диапазон : Limited
    Основные цвета : BT.709
    Характеристики трансфера : BT.709
    Коэффициенты матрицы : BT.709
    Аудио
    Идентификатор : 2142 (0x85E)
    Идентификатор меню : 21004 (0x520C)
    Формат : MPEG Audio
    Версия формата : Version 1
    Профиль формата : Layer 2
    Идентификатор кодека : 4
    Продолжительность : 1 ч. 37 м.
    Вид битрейта : Постоянный
    Битрейт : 192 Кбит/сек
    Каналы : 2 канала
    Частота : 48,0 КГц
    Метод сжатия : С потерями
    Задержка видео : -3 мс.
    Размер потока : 133 Мбайт (3%)
    Язык : Russian
    Текст
    Идентификатор : 2144 (0x860)-888
    Идентификатор меню : 21004 (0x520C)
    Формат : Teletext Subtitle
    Язык : Russian

    Скриншоты

    Скачать .torrent

    Скачать торрент-файл бесплатно и на максимальной скорости!

    Как скачивать? · Что такое торрент? · Рейтинг и ограничения

    !ВНИМАНИЕ!
    Сайт не распространяет и не хранит электронные версии произведений, а занимается лишь лишь предоставлением доступа к создаваемому пользователями каталогу ссылок на торрент-файлы, которые содержат только списки хеш-сумм, убедительная просьба с жалобами обращаться напрямую к пользователю. Файлы для обмена на трекере предоставлены пользователями сайта, и администрация не несёт ответственности за их содержание. Просьба не заливать файлы, защищенные авторскими правами, а также файлы нелегального содержания!


    _________________
    [Профиль] [ЛС]
    Показать сообщения:    
    Ответить на тему

    Текущее время: Сегодня, в 02:02

    Часовой пояс: GMT + 2



    Вы не можете начинать темы
    Вы не можете отвечать на сообщения
    Вы не можете редактировать свои сообщения
    Вы не можете удалять свои сообщения
    Вы не можете голосовать в опросах
    Вы не можете прикреплять файлы к сообщениям
    Вы не можете скачивать файлы