BitTorrentTracker PerecTracker.org
BitTorrentTracker PerecTracker.org
    
Регистрация  ·  Вход
 
 · 
Забыли пароль?

  • [ATV3] Angry Birds в кино / Angry Birds (Фергал Рейли / Fergal Reilly ) [2016, США, Финляндия , Мультфильм, боевик, комедия, семейный, BDRip, HD (1080p)] DUB + Original + sub (rus, ukr, eng)

    Ответить на тему
     
    Автор Сообщение

    Flirldrerve

    Создавать темы 01-Авг-2016 13:44

           

    [Цитировать]

    Angry Birds в кино / Angry Birds
    «Что такие сердитые?»
    6.476 / 10 6.30 / 10
    -Год выпуска: 2016
    Страна: США, Финляндия
    Жанр: Мультфильм, боевик, комедия, семейный
    Продолжительность: 01:37:13
    Перевод: Дублированный (iTunes)
    Оригинальная аудиодорожка: Есть
    Cубтитры: Русские форсированные, Украинские форсированные, Русские, Украинские, Английские
    Режиссёр: Фергал Рейли
    Сценарий: Джон Витти, Джон Коэн, Майкл Хэд
    Продюсер: Джон Коэн, Катрин Уиндер, Майкл Хэд
    Композитор: Эйтор Перейра
    Художник: Пит Освальд
    Монтаж: Кент Бейда, Элли Гаррет
    В ролях: Джейсон Судейкис, Джош Гад, Дэнни МакБрайд, Майя Рудольф, Билл Хейдер, Питер Динклэйдж, Шон Пенн, Кигэн-Майкл Ки, Кейт МакКиннон, Тони Хейл
    Бюджет: $73 000 000
    Сборы в США: $106 688 585
    Сборы в мире: + $237 724 699 = $344 413 284
    Сборы в России: $12 312 405
    Мировая премьера: 1 мая 2016
    Премьера (РФ): 12 мая 2016, «WDSSPR»
    Описание: Фильм расскажет о том, как началось знаменитое противостояние птичек и свинок, персонажей популярной компьютерной игры, а также раскроет некоторые секреты любимых героев.-Качество исходника: BDRemux (HDClub)
    Качество: BDRip
    Тип: HD (1080p)
    Контейнер: M4V
    Видео: H.264, 1920x1040, 1.85:1, 6 500 Kbps, 23.976 fps
    Аудио 1: Русский/Дублированный (iTunes), AAC / 2.0 / 157 Kbps / 48.0 KHz
    Аудио 2: Английский/Оригинальная дорожка , AAC / 2.0 / 159 Kbps / 48.0 KHz
    Аудио 3: Украинский/Дублированный (iTunes), AAC / 2.0 / 157 Kbps / 48.0 KHz
    Аудио 4: Русский/Дублированный (iTunes), AC-3 / 5.1 / 384 Kbps / 48.0 KHz
    Аудио 5: Английский/Оригинальная дорожка , AC-3 / 5.1 / 640 Kbps / 48.0 KHz
    Субтитры 1: Русские форсированные
    Субтитры 2: Украинские форсированные
    Субтитры 3: Русские полные
    Субтитры 4: Украинские полные
    Субтитры 5: Английские полные
    -

    iTunes Meta Tags

    Sort Name: Angry Birds Movie
    XID: Apple:vendor_id:2016-609618
    contentID: 1100915157
    Screenwriters: Джон Витти
    Producers: Джон Коэн, Катрин Уиндер, Майкл Хэд
    Director: Клэй Кэйтис, Фергал Рейли
    Cast: Питер Динклэйдж, Джейсон Судейкис, Кейт МакКиннон, Кигэн-Майкл Ки, Титус Берджесс, Шон Пенн, Билл Хейдер, Майя Рудольф, Айк Баринхолц, Дэнни МакБрайд
    Studio: Columbia Pictures
    Rating Annotation: Rated PG for rude humor and action.
    Rating: 3
    Long Description: Фильм расскажет о том, как началось знаменитое противостояние птичек и свинок, персонажей популярной компьютерной игры, а также раскроет некоторые секреты любимых героев.
    Description: Фильм расскажет о том, как началось знаменитое противостояние птичек и свинок, персонажей популярной компьютерной игры, а также раскроет некоторые секреты любимых героев.
    Release Date: 2016-05-05T08:00:00Z
    Genre: Kids & Family
    Artist: Clay Kaytis & Fergal Reilly
    Name: The Angry Birds Movie

    MediaInfo

    General
    Complete name : /Users/imac/HandBrake/Angry Birds (1080p HD).m4v
    Format : MPEG-4
    Codec ID : M4V
    File size : 5.44 GiB
    Duration : 1h 37mn
    Overall bit rate mode : Variable
    Overall bit rate : 8 008 Kbps
    Movie name : The Angry Birds Movie
    Performer : Clay Kaytis & Fergal Reilly
    Director : Клэй Кэйтис / Фергал Рейли
    Actor : Питер Динклэйдж / Джейсон Судейкис / Кейт МакКиннон / Кигэн-Майкл Ки / Титус Берджесс / Шон Пенн / Билл Хейдер / Майя Рудольф / Айк Баринхолц / Дэнни МакБрайд
    Screenplay by : Джон Витти
    Producer : Джон Коэн / Катрин Уиндер / Майкл Хэд
    Production studio : Columbia Pictures
    Genre : Kids & Family
    ContentType : Short Film
    Description : Фильм расскажет о том, как началось знаменитое противостояние птичек и свинок, персонажей популярной компьютерной игры, а также раскроет некоторые секреты любимых героев.
    Recorded date : UTC 2016-05-05 08:00:00
    Encoded date : UTC 2016-08-01 08:45:55
    Tagged date : UTC 2016-08-01 08:50:03
    Cover : Yes
    Rating : None
    Title/Sort : Angry Birds Movie
    LongDescription : Фильм расскажет о том, как началось знаменитое противостояние птичек и свинок, персонажей популярной компьютерной игры, а также раскроет некоторые секреты любимых героев.
    AppleStoreCatalogID : 1100915157
    Vendor : Apple:vendor_id:2016-609618
    ContentRating : mpaa|PG|200|Rated PG for rude humor and action.
    Video #1
    ID : 1
    Format : AVC
    Format/Info : Advanced Video Codec
    Format profile : High@L4
    Format settings, CABAC : Yes
    Format settings, ReFrames : 4 frames
    Codec ID : avc1
    Codec ID/Info : Advanced Video Coding
    Duration : 1h 37mn
    Source duration : 1h 37mn
    Bit rate : 6 500 Kbps
    Width : 1 920 pixels
    Height : 1 040 pixels
    Display aspect ratio : 1.85:1
    Frame rate mode : Variable
    Frame rate : 23.976 fps
    Minimum frame rate : 23.974 fps
    Maximum frame rate : 23.981 fps
    Color space : YUV
    Chroma subsampling : 4:2:0
    Bit depth : 8 bits
    Scan type : Progressive
    Bits/(Pixel*Frame) : 0.136
    Stream size : 4.41 GiB (81%)
    Source stream size : 4.41 GiB (81%)
    Title : Main Program
    Writing library : x264 core 142 r2479 dd79a61
    Encoding settings : cabac=1 / ref=4 / deblock=1:-2:-2 / analyse=0x3:0x133 / me=umh / subme=10 / psy=1 / psy_rd=1.00:0.15 / mixed_ref=1 / me_range=32 / chroma_me=1 / trellis=2 / 8x8dct=1 / cqm=0 / deadzone=21,11 / fast_pskip=0 / chroma_qp_offset=-3 / threads=36 / lookahead_threads=8 / sliced_threads=0 / nr=0 / decimate=0 / interlaced=0 / bluray_compat=0 / constrained_intra=0 / bframes=16 / b_pyramid=2 / b_adapt=2 / b_bias=0 / direct=3 / weightb=1 / open_gop=0 / weightp=2 / keyint=240 / keyint_min=24 / scenecut=40 / intra_refresh=0 / rc_lookahead=60 / rc=2pass / mbtree=1 / bitrate=6500 / ratetol=1.0 / qcomp=0.70 / qpmin=0 / qpmax=69 / qpstep=4 / cplxblur=20.0 / qblur=0.5 / vbv_maxrate=25000 / vbv_bufsize=25000 / nal_hrd=none / filler=0 / ip_ratio=1.40 / aq=1:1.00
    Language : English
    Encoded date : UTC 2016-08-01 08:45:55
    Tagged date : UTC 2016-08-01 08:46:06
    Color range : Limited
    Color primaries : BT.709
    Transfer characteristics : BT.709
    Matrix coefficients : BT.709
    Video #2
    ID : 13
    Format : JPEG
    Codec ID : jpeg
    Duration : 1h 37mn
    Bit rate mode : Variable
    Bit rate : 1 509 bps
    Width : 640 pixels
    Height : 346 pixels
    Display aspect ratio : 1.85:1
    Frame rate mode : Variable
    Frame rate : 0.003 fps
    Minimum frame rate : 0.001 fps
    Maximum frame rate : 0.006 fps
    Color space : YUV
    Chroma subsampling : 4:2:0
    Bit depth : 8 bits
    Compression mode : Lossy
    Bits/(Pixel*Frame) : 2.271
    Stream size : 983 KiB (0%)
    Title : Chapter Images
    Language : English
    Encoded date : UTC 2016-08-01 08:46:13
    Tagged date : UTC 2016-08-01 08:46:14
    Audio #1
    ID : 2
    Format : AAC
    Format/Info : Advanced Audio Codec
    Format profile : LC
    Codec ID : 40
    Duration : 1h 37mn
    Bit rate mode : Variable
    Bit rate : 157 Kbps
    Maximum bit rate : 276 Kbps
    Channel(s) : 2 channels
    Channel positions : Front: L R
    Sampling rate : 48.0 KHz
    Compression mode : Lossy
    Stream size : 109 MiB (2%)
    Title : Russian Stereo
    Language : Russian
    Encoded date : UTC 2016-08-01 08:45:55
    Tagged date : UTC 2016-08-01 08:46:06
    Audio #2
    ID : 3
    Format : AAC
    Format/Info : Advanced Audio Codec
    Format profile : LC
    Codec ID : 40
    Duration : 1h 37mn
    Bit rate mode : Variable
    Bit rate : 159 Kbps
    Maximum bit rate : 275 Kbps
    Channel(s) : 2 channels
    Channel positions : Front: L R
    Sampling rate : 48.0 KHz
    Compression mode : Lossy
    Stream size : 110 MiB (2%)
    Title : English Stereo
    Language : English
    Encoded date : UTC 2016-08-01 08:45:55
    Tagged date : UTC 2016-08-01 08:46:06
    Audio #3
    ID : 4
    Format : AAC
    Format/Info : Advanced Audio Codec
    Format profile : LC
    Codec ID : 40
    Duration : 1h 37mn
    Bit rate mode : Variable
    Bit rate : 157 Kbps
    Maximum bit rate : 268 Kbps
    Channel(s) : 2 channels
    Channel positions : Front: L R
    Sampling rate : 48.0 KHz
    Compression mode : Lossy
    Stream size : 109 MiB (2%)
    Title : Ukrainian Stereo
    Language : Ukrainian
    Encoded date : UTC 2016-08-01 08:45:55
    Tagged date : UTC 2016-08-01 08:46:06
    Audio #4
    ID : 5
    Format : AC-3
    Format/Info : Audio Coding 3
    Mode extension : CM (complete main)
    Format settings, Endianness : Big
    Codec ID : ac-3
    Duration : 1h 37mn
    Bit rate mode : Constant
    Bit rate : 384 Kbps
    Channel(s) : 6 channels
    Channel positions : Front: L C R, Side: L R, LFE
    Sampling rate : 48.0 KHz
    Bit depth : 16 bits
    Compression mode : Lossy
    Stream size : 267 MiB (5%)
    Title : Russian DD 5.1
    Language : Russian
    Encoded date : UTC 2016-08-01 08:45:55
    Tagged date : UTC 2016-08-01 08:46:06
    Audio #5
    ID : 6
    Format : AC-3
    Format/Info : Audio Coding 3
    Mode extension : CM (complete main)
    Format settings, Endianness : Big
    Codec ID : ac-3
    Duration : 1h 37mn
    Bit rate mode : Constant
    Bit rate : 640 Kbps
    Channel(s) : 6 channels
    Channel positions : Front: L C R, Side: L R, LFE
    Sampling rate : 48.0 KHz
    Bit depth : 16 bits
    Compression mode : Lossy
    Stream size : 445 MiB (8%)
    Title : English DD 5.1
    Language : English
    Encoded date : UTC 2016-08-01 08:45:55
    Tagged date : UTC 2016-08-01 08:46:06
    Text #1
    ID : 7
    Format : Timed Text
    Muxing mode : sbtl
    Codec ID : tx3g
    Duration : 1h 30mn
    Bit rate mode : Variable
    Bit rate : 3 bps
    Stream size : 1.93 KiB (0%)
    Title : Russain forced
    Language : Russian
    Encoded date : UTC 2016-08-01 08:45:55
    Tagged date : UTC 2016-08-01 08:46:05
    Text #2
    ID : 8
    Format : Timed Text
    Muxing mode : sbtl
    Codec ID : tx3g
    Duration : 1h 28mn
    Bit rate mode : Variable
    Bit rate : 3 bps
    Stream size : 1.96 KiB (0%)
    Title : Ukrainian forced
    Language : Ukrainian
    Encoded date : UTC 2016-08-01 08:45:55
    Tagged date : UTC 2016-08-01 08:46:05
    Text #3
    ID : 9
    Format : Timed Text
    Muxing mode : sbtl
    Codec ID : tx3g
    Duration : 1h 30mn
    Bit rate mode : Variable
    Bit rate : 106 bps
    Stream size : 70.4 KiB (0%)
    Title : Russian full
    Language : Russian
    Encoded date : UTC 2016-08-01 08:45:55
    Tagged date : UTC 2016-08-01 08:46:05
    Text #4
    ID : 10
    Format : Timed Text
    Muxing mode : sbtl
    Codec ID : tx3g
    Duration : 1h 30mn
    Bit rate mode : Variable
    Bit rate : 107 bps
    Stream size : 70.9 KiB (0%)
    Title : Ukrainian full
    Language : Ukrainian
    Encoded date : UTC 2016-08-01 08:45:55
    Tagged date : UTC 2016-08-01 08:46:05
    Text #5
    ID : 11
    Format : Timed Text
    Muxing mode : sbtl
    Codec ID : tx3g
    Duration : 1h 33mn
    Bit rate mode : Variable
    Bit rate : 85 bps
    Stream size : 58.1 KiB (0%)
    Title : English full
    Language : English
    Encoded date : UTC 2016-08-01 08:45:55
    Tagged date : UTC 2016-08-01 08:46:05
    Menu #1
    00:00:00.000 : 00:00:00.000
    00:07:05.091 : 00:07:05.091
    00:13:38.109 : 00:13:38.109
    00:20:22.638 : 00:20:22.638
    00:25:38.620 : 00:25:38.620
    00:32:57.392 : 00:32:57.392
    00:38:34.812 : 00:38:34.812
    00:41:36.327 : 00:41:36.327
    00:47:12.955 : 00:47:12.955
    00:52:04.288 : 00:52:04.288
    00:56:07.698 : 00:56:07.698
    00:59:08.712 : 00:59:08.712
    01:03:43.319 : 01:03:43.319
    01:11:45.801 : 01:11:45.801
    01:18:55.522 : 01:18:55.522
    01:23:54.821 : 01:23:54.821
    Menu #2
    ID : 12
    Codec ID : text
    Duration : 1h 37mn
    Language : English
    Encoded date : UTC 2016-08-01 08:46:06
    Tagged date : UTC 2016-08-01 08:46:06
    Bit rate mode : CBR
    00:00:00.000 : 00:00:00.000
    00:07:05.091 : 00:07:05.091
    00:13:38.109 : 00:13:38.109
    00:20:22.638 : 00:20:22.638
    00:25:38.620 : 00:25:38.620
    00:32:57.392 : 00:32:57.392
    00:38:34.812 : 00:38:34.812
    00:41:36.327 : 00:41:36.327
    00:47:12.955 : 00:47:12.955
    00:52:04.288 : 00:52:04.288
    00:56:07.698 : 00:56:07.698
    00:59:08.712 : 00:59:08.712
    01:03:43.319 : 01:03:43.319
    01:11:45.801 : 01:11:45.801
    01:18:55.522 : 01:18:55.522
    01:23:54.821 : 01:23:54.821

    x264 лог

    x264 [info]: frame I:1306  Avg QP:16.70  size:266443
    x264 [info]: frame P:48967 Avg QP:21.09  size: 58133
    x264 [info]: frame B:89598 Avg QP:23.26  size: 17232
    x264 [info]: consecutive B-frames: 10.4% 12.8%  6.7% 62.6%  2.5%  2.8%  0.5%  1.4%  0.1%  0.0%  0.0%  0.1%  0.0%  0.0%  0.0%  0.0%  0.0%
    x264 [info]: mb I  I16..4:  4.9% 75.8% 19.3%
    x264 [info]: mb P  I16..4:  3.6% 18.5%  2.0%  P16..4: 39.8% 11.7% 10.8%  0.4%  0.1%    skip:13.2%
    x264 [info]: mb B  I16..4:  0.3%  2.1%  0.3%  B16..8: 34.8%  6.1%  1.5%  direct: 3.3%  skip:51.7%  L0:40.4% L1:49.4% BI:10.2%
    x264 [info]: 8x8 transform intra:76.7% inter:67.3%
    x264 [info]: direct mvs  spatial:92.5% temporal:7.5%
    x264 [info]: coded y,uvDC,uvAC intra: 73.8% 78.6% 46.8% inter: 16.5% 17.4% 7.1%
    x264 [info]: i16 v,h,dc,p: 17% 19%  8% 57%
    x264 [info]: i8 v,h,dc,ddl,ddr,vr,hd,vl,hu: 11% 14%  7%  8% 11% 11% 13% 11% 13%
    x264 [info]: i4 v,h,dc,ddl,ddr,vr,hd,vl,hu: 10% 13%  4%  8% 15% 13% 15%  9% 12%
    x264 [info]: i8c dc,h,v,p: 35% 27% 18% 20%
    x264 [info]: Weighted P-Frames: Y:1.8% UV:1.1%
    x264 [info]: ref P L0: 65.5% 12.4% 14.8%  6.3%  1.0%  0.0%
    x264 [info]: ref B L0: 89.5%  8.4%  2.0%
    x264 [info]: ref B L1: 95.2%  4.8%
    x264 [info]: kb/s:6498.09

    Скриншоты

    -

    Релиз подготовлен для просмотра на Apple TV, iPad, iPhone, iPod Touch.
    Для просмотра данного релиза на компьютере с ОС Windows рекомендуется использовать VLC media player
    Скачать .torrent

    Скачать торрент-файл бесплатно и на максимальной скорости!

    Как скачивать? · Что такое торрент? · Рейтинг и ограничения

    !ВНИМАНИЕ!
    Сайт не распространяет и не хранит электронные версии произведений, а занимается лишь лишь предоставлением доступа к создаваемому пользователями каталогу ссылок на торрент-файлы, которые содержат только списки хеш-сумм, убедительная просьба с жалобами обращаться напрямую к пользователю. Файлы для обмена на трекере предоставлены пользователями сайта, и администрация не несёт ответственности за их содержание. Просьба не заливать файлы, защищенные авторскими правами, а также файлы нелегального содержания!


    _________________
    [Профиль] [ЛС]
    Показать сообщения:    
    Ответить на тему

    Текущее время: Сегодня, в 18:00

    Часовой пояс: GMT + 2



    Вы не можете начинать темы
    Вы не можете отвечать на сообщения
    Вы не можете редактировать свои сообщения
    Вы не можете удалять свои сообщения
    Вы не можете голосовать в опросах
    Вы не можете прикреплять файлы к сообщениям
    Вы не можете скачивать файлы