BitTorrentTracker PerecTracker.org
BitTorrentTracker PerecTracker.org
    
Регистрация  ·  Вход
 
 · 
Забыли пароль?

  • Турецкий транзит / Серии: 1-8 из 8 (Мурад Алиев) [2014, Детектив, HDTV 1080i]

    Ответить на тему
     
    Автор Сообщение

    Columb

    Создавать темы 16-Мар-2014 19:00

           

    [Цитировать]

    Турецкий транзит
    Год выпуска: 2014
    Производство: Россия, Студия «2В» по заказу телеканала «Россия»
    Жанр: Детектив
    Продолжительность: 00:45:00
    Субтитры: нет
    Режиссёр:Мурад Алиев
    В ролях: Евгений Добряков, Елена Дудина, Надежда Азоркина, Фаридуншо Рахматуллоев, Бесо Гатаев, Янина Студилина, Юлия Мельникова, Борис Щербаков, Александр Лобанов, Лариса Кадочникова, Эльдар Лебедев, Владимир Жеребцов, Гюнай Мусаева, Максим Важов, Сергей Ларин, Константин Давыдов, Лариса Шахворостова, Тимур Бадалбейли
    Описание: Живут две девушки, Рита и Наташа, как две капли воды похожие друг на друга. По сюжету сериала девушки одновременно оказываются в солнечной Турции. Надо сказать, что Рита обеспеченная, а Наташа провинциальная девушка, без особых средств к существованию. Наташа со своим напарником узнала о транзите запрещенных товаров из Турции в Россию. При этом они решили ограбить турецких бандитов, что им удается. После этого Наталья кидает своего напарника и уезжает с деньгами.А с Ритой в этот момент случилась неприятность, она упала и потеряла память. Бандиты, которых ограбили, не подозревают, что Рита это не Наташа. Об этом также не догадывается и бывший напарник Наташи, который хочет вернуть свои деньги. Две противоборствующие группировки начинают преследовать Риту, которая ничего не понимает.Как Рите удалось выпутаться из этой ситуации и вернуть память будет очень интересно узнать любителям остросюжетных сериальных детективов.
    Качество: HDTV 1080i
    Формат: TS
    Видео кодек: H.264
    Аудио кодек: MPEG Audio
    Видео: MPEG4 Video (H264) 1920x1080, ~ 5856 kbps, 25.00fps 0.113 bit/pixel
    Аудио: MPEG Audio, 2 канала, 48,0 КГц, ~256 kbps
    Сторонней рекламы нет!

    MI

    ОбщееИдентификатор : 1 (0x1)Полное имя : E:\Downloads\55\Турецкий транзит HDTV 1080i\Турецкий транзит 01_серия_HDTV_1080i.tsФормат : MPEG-TSРазмер файла : 1,97 ГбайтПродолжительность : 43 м.Общий поток : 6432 Кбит/секМаксимальный общий битрейт : 35,5 Мбит/сек
    ВидеоИдентификатор : 4113 (0x1011)Идентификатор меню : 1 (0x1)Формат : AVCФормат/Информация : Advanced Video CodecПрофиль формата : High@L4.1Параметр CABAC формата : ДаПараметр ReFrames формата : 3 кадраИдентификатор кодека : 27Продолжительность : 43 м.Вид битрейта : ПеременныйБитрейт : 5856 Кбит/секМаксимальный битрейт : 40,0 Мбит/секШирина : 1920 пикс.Высота : 1080 пикс.Соотношение сторон : 16:9Частота кадров : 25,000 кадр/секЦветовое пространство : YUVПодвыборка цветности : 4:2:0Битовая глубина : 8 битТип развёртки : ПрогрессивнаяБит/(Пиксели*Кадры) : 0.113Размер потока : 1,79 Гбайт (91%)
    АудиоИдентификатор : 4352 (0x1100)Идентификатор меню : 1 (0x1)Формат : MPEG AudioВерсия формата : Version 1Профиль формата : Layer 2Идентификатор кодека : 4Продолжительность : 43 м.Вид битрейта : ПостоянныйБитрейт : 256 Кбит/секКаналы : 2 каналаЧастота : 48,0 КГцМетод сжатия : С потерямиРазмер потока : 80,2 Мбайт (4%)Язык : Russian

    Скриншоты

    Скачать .torrent

    Скачать торрент-файл бесплатно и на максимальной скорости!

    Как скачивать? · Что такое торрент? · Рейтинг и ограничения

    !ВНИМАНИЕ!
    Сайт не распространяет и не хранит электронные версии произведений, а занимается лишь лишь предоставлением доступа к создаваемому пользователями каталогу ссылок на торрент-файлы, которые содержат только списки хеш-сумм, убедительная просьба с жалобами обращаться напрямую к пользователю. Файлы для обмена на трекере предоставлены пользователями сайта, и администрация не несёт ответственности за их содержание. Просьба не заливать файлы, защищенные авторскими правами, а также файлы нелегального содержания!

    [Профиль] [ЛС]
    Показать сообщения:    
    Ответить на тему

    Текущее время: Сегодня, в 14:43

    Часовой пояс: GMT + 2



    Вы не можете начинать темы
    Вы не можете отвечать на сообщения
    Вы не можете редактировать свои сообщения
    Вы не можете удалять свои сообщения
    Вы не можете голосовать в опросах
    Вы не можете прикреплять файлы к сообщениям
    Вы не можете скачивать файлы