BitTorrentTracker PerecTracker.org
BitTorrentTracker PerecTracker.org
    
Регистрация  ·  Вход
 
 · 
Забыли пароль?

  • Комета / Comet (Сэм Эсмейл / Sam Esmail) [2014, США, Фантастика, драма, мелодрама, комедия, HDRip] MVO (FocusStudio) + Original + Subs (rus,eng)

    Ответить на тему
     
    Автор Сообщение

    Light

    Создавать темы 01-Авг-2016 01:11

           

    [Цитировать]

    Комета / Comet
    Страна: США
    Жанр: Фантастика, драма, мелодрама, комедия
    Год выпуска: 2014
    Продолжительность: 01:31:07
    Перевод: Профессиональный (многоголосый закадровый) - (FocusStudio)
    Cубтитры: Русские (полные), английские (полные)
    Оригинальная аудиодорожка: Англиский
    Режиссер: Сэм Эсмейл / Sam Esmail
    В ролях: Эмми Россум, Джастин Лонг, Эрик Винтер, Лу Битти мл., Бен Паке, Деррик Дин, Кайла Серви, Николь Лукас
    Описание: Когда случайная встреча объединяет циничного Делла и остроумную Кимберли, начинается история бурной любви, действие которой разворачивается как головоломка. Зигзаги вперед и назад во времени — от метеоритного дождя в Лос-Анджелесе, к встрече в гостиничном номере в Париже, к роковому телефонному разговору.
    Сэмпл: http://multi-up.com/1112213
    Качество видео: HDRip
    Исходник: [Comet.2014_1080p_BDRip_[scarabey&lord666]
    Формат видео: AVI
    Видео: 720x384 (1.85:1), 23.976 fps, XviD build 65 ~1834 kbps avg, 0.28 bit/pixel
    Аудио RUS: 48 kHz, AC3 Dolby Digital, 3/2 (L,C,R,l,r) + LFE ch, ~448 kbps
    Аудио ENG: 48 kHz, AC3 Dolby Digital, 3/2 (L,C,R,l,r) + LFE ch, ~448 kbps - отдельным файлом
    Формат субтитров: softsub (SRT)

    Rip by Ториял

    MediaInfo

    General
    Complete name : D:\Фильмы\Comet_2014_Toriyal_Rutracker\Comet_2014_Toriyal_Rutracker.avi
    Format : AVI
    Format/Info : Audio Video Interleave
    File size : 1.46 GiB
    Duration : 1h 31mn
    Overall bit rate : 2 292 Kbps
    Writing application : VirtualDubMod 1.5.10.2 (build 2540/release)
    Writing library : VirtualDubMod build 2540/release
    Video
    ID : 0
    Format : MPEG-4 Visual
    Format profile : Advanced Simple@L5
    Format settings, BVOP : 1
    Format settings, QPel : No
    Format settings, GMC : No warppoints
    Format settings, Matrix : Custom
    Codec ID : XVID
    Codec ID/Hint : XviD
    Duration : 1h 31mn
    Bit rate : 1 834 Kbps
    Width : 720 pixels
    Height : 384 pixels
    Display aspect ratio : 1.85:1
    Frame rate : 23.976 (23976/1000) fps
    Color space : YUV
    Chroma subsampling : 4:2:0
    Bit depth : 8 bits
    Scan type : Progressive
    Compression mode : Lossy
    Bits/(Pixel*Frame) : 0.277
    Stream size : 1.17 GiB (80%)
    Writing library : XviD 65
    Audio
    ID : 1
    Format : AC-3
    Format/Info : Audio Coding 3
    Mode extension : CM (complete main)
    Format settings, Endianness : Big
    Codec ID : 2000
    Duration : 1h 31mn
    Bit rate mode : Constant
    Bit rate : 448 Kbps
    Channel(s) : 6 channels
    Channel positions : Front: L C R, Side: L R, LFE
    Sampling rate : 48.0 KHz
    Frame rate : 31.250 fps (1536 spf)
    Compression mode : Lossy
    Stream size : 292 MiB (20%)
    Alignment : Split accross interleaves
    Interleave, duration : 42 ms (1.00 video frame)
    Interleave, preload duratio : 500 ms

    Скриншоты

    Скачать .torrent

    Скачать торрент-файл бесплатно и на максимальной скорости!

    Как скачивать? · Что такое торрент? · Рейтинг и ограничения

    !ВНИМАНИЕ!
    Сайт не распространяет и не хранит электронные версии произведений, а занимается лишь лишь предоставлением доступа к создаваемому пользователями каталогу ссылок на торрент-файлы, которые содержат только списки хеш-сумм, убедительная просьба с жалобами обращаться напрямую к пользователю. Файлы для обмена на трекере предоставлены пользователями сайта, и администрация не несёт ответственности за их содержание. Просьба не заливать файлы, защищенные авторскими правами, а также файлы нелегального содержания!


    _________________
    [Профиль] [ЛС]
    Показать сообщения:    
    Ответить на тему

    Текущее время: Сегодня, в 22:30

    Часовой пояс: GMT + 2



    Вы не можете начинать темы
    Вы не можете отвечать на сообщения
    Вы не можете редактировать свои сообщения
    Вы не можете удалять свои сообщения
    Вы не можете голосовать в опросах
    Вы не можете прикреплять файлы к сообщениям
    Вы не можете скачивать файлы