BitTorrentTracker PerecTracker.org
BitTorrentTracker PerecTracker.org
    
Регистрация  ·  Вход
 
 · 
Забыли пароль?

  • Красотка и бродяга / Бен Бэнкс / Beauty and the Least: The Misadventures of Ben Banks (Брайс Кларк / Bryce Clark ) [2012, США, драма, мелодрама, комедия, HDRip] MVO (НТВ+) + Original Eng

    Ответить на тему
     
    Автор Сообщение

    Light

    Создавать темы 01-Авг-2016 01:11

           

    [Цитировать]

    Красотка и бродяга / Бен Бэнкс / Beauty and the Least: The Misadventures of Ben Banks
    Страна: США
    Жанр: драма, мелодрама, комедия
    Год выпуска: 2012
    Продолжительность: 01:25:27
    Перевод: Профессиональный (многоголосый закадровый) НТВ+
    Субтитры: нет
    Оригинальная аудиодорожка: Английский
    Режиссер: Брайс Кларк / Bryce Clark
    В ролях: Бен Бэнкс, Кэтрин Таун, Миша Бартон, Эмили Моффатт, Майкл Хоберт, Дэвид Салливан, Сал Масикела, Алекс Бе, Ким Хаффман, Кайл Уэст
    Описание:
    Он молодой парень без амбиций, который постоянно попадает в серии странных при(зло)ключений. Когда он влюбляется в прелестную девушку с таинственным прошлым, он отправляется в путешествие, в конце которого понимает, что повзрослеть — это совсем неплохо.
    Семпл/Все раздачи фильма
    Исходник -- Krasotka.i.brodjaga.2012.BDRip.720p.mkv Найден в сети.
    Качество видео: HDRip
    Формат видео: AVI
    Видео: 2028 Kbps, 720x400, 23.976 fps, XviD
    Аудио:
    №1 192 Kbps, 48 KHz, 2 ch, AC-3 НТВ+
    №2 192 Kbps, 48 KHz, 2 ch, AC-3 Английский

    МедиаИнфо

    General
    Complete name : E:\Beauty_and_the_Least_2012.avi
    Format : AVI
    Format/Info : Audio Video Interleave
    File size : 1.45 GiB
    Duration : 1h 25mn
    Overall bit rate : 2 426 Kbps
    Writing application : VirtualDubMod 1.5.10.3 | www.virtualdub-fr.org || (build 2550/release)
    Writing library : VirtualDubMod build 2550/release
    Video
    ID : 0
    Format : MPEG-4 Visual
    Format profile : Advanced Simple@L5
    Format settings, BVOP : Yes
    Format settings, QPel : No
    Format settings, GMC : No warppoints
    Format settings, Matrix : Default (MPEG)
    Codec ID : XVID
    Codec ID/Hint : XviD
    Duration : 1h 25mn
    Bit rate : 2 028 Kbps
    Width : 720 pixels
    Height : 400 pixels
    Display aspect ratio : 16:9
    Frame rate : 23.976 fps
    Resolution : 8 bits
    Colorimetry : 4:2:0
    Scan type : Progressive
    Bits/(Pixel*Frame) : 0.294
    Stream size : 1.21 GiB (84%)
    Writing library : XviD 1.2.0.dev47 (UTC 2006-11-01)
    Audio #1
    ID : 1
    Format : AC-3
    Format/Info : Audio Coding 3
    Format_Settings_ModeExtension : CM (complete main)
    Codec ID : 2000
    Duration : 1h 25mn
    Bit rate mode : Constant
    Bit rate : 192 Kbps
    Channel(s) : 2 channels
    Channel positions : Front: L R
    Sampling rate : 48.0 KHz
    Stream size : 117 MiB (8%)
    Alignment : Split accross interleaves
    Interleave, duration : 42 ms (1.00 video frame)
    Interleave, preload duration : 500 ms
    Audio #2
    ID : 2
    Format : AC-3
    Format/Info : Audio Coding 3
    Format_Settings_ModeExtension : CM (complete main)
    Codec ID : 2000
    Duration : 1h 25mn
    Bit rate mode : Constant
    Bit rate : 192 Kbps
    Channel(s) : 2 channels
    Channel positions : Front: L R
    Sampling rate : 48.0 KHz
    Stream size : 117 MiB (8%)
    Alignment : Split accross interleaves
    Interleave, duration : 42 ms (1.00 video frame)
    Interleave, preload duration : 500 ms

    Скриншоты

    Скачать .torrent

    Скачать торрент-файл бесплатно и на максимальной скорости!

    Как скачивать? · Что такое торрент? · Рейтинг и ограничения

    !ВНИМАНИЕ!
    Сайт не распространяет и не хранит электронные версии произведений, а занимается лишь лишь предоставлением доступа к создаваемому пользователями каталогу ссылок на торрент-файлы, которые содержат только списки хеш-сумм, убедительная просьба с жалобами обращаться напрямую к пользователю. Файлы для обмена на трекере предоставлены пользователями сайта, и администрация не несёт ответственности за их содержание. Просьба не заливать файлы, защищенные авторскими правами, а также файлы нелегального содержания!


    _________________
    [Профиль] [ЛС]
    Показать сообщения:    
    Ответить на тему

    Текущее время: Сегодня, в 06:12

    Часовой пояс: GMT + 2



    Вы не можете начинать темы
    Вы не можете отвечать на сообщения
    Вы не можете редактировать свои сообщения
    Вы не можете удалять свои сообщения
    Вы не можете голосовать в опросах
    Вы не можете прикреплять файлы к сообщениям
    Вы не можете скачивать файлы